Важное объявление!
У Нас Все раздачи мультитрекерные, при нуле пиров в релизах, можете смело вставать на закачку!
 
Автор Сообщение

HUNTER

Стаж:
4 года 10 месяцев
Сообщений:
65473

Репутация: 101

[+] [-]
Вне форума [Профиль] [ЛС]

Иллюзия убийства 2 / F/X2 - The Deadly Art Of Illusion
Страна: США
Жанр: боевик, детектив
Год выпуска: 1991
Продолжительность: 1:48:06
Перевод: Профессиональный (многоголосый закадровый) Позитив-Мультимедиа
Перевод 2: Авторский (одноголосый закадровый) Живов
Перевод 3: Авторский (одноголосый закадровый) Горчаков
Cубтитры: английские, русские
Оригинальная аудиодорожка: английский
Режиссер: Ричард Франклин / Richard Franklin
В ролях: Брайан Браун, Брайан Деннехи, Филип Боско, Кевин Дж. О'Коннор, Рэйчел Тикотин
Описание: Спустя пять лет после своего первого опасного приключения, Ролли Тайлер оставил бизнес спецэффектов и зарабатывает на жизнь проектированием дорогих электронных игрушек. За помощью к нему обращается бывший супруг его подружки - полицейский детектив. Полицейским нужно достоверно разыграть сцену, чтобы поймать серийного убийцу, и Ролли в очередной раз соблазняется опасным миром киноиллюзий ... Чтобы разоблачить опасные замыслы преступников, он может полагаться только на свои изобретательные трюки и старую дружбу с детективом Лео Маккарти - если, конечно, сумеет остаться в живых.
Доп. информация: Видеодорожка сделана из раздачи [url=viewtopic.php?t=5139797]http://rutracker.org/forum/viewtopic.php?t=5139797[/url] (спасибо pirs18). Использованы MKVmerge GUI v5.7.0, Rhozet Carbon Coder v3.17 + AVISynth 2.5 + FFMpegSource 2-17.

Скрипт AVISynth

LoadPlugin("C:\Program Files New\ffms-2.17\ffms2.dll") # подключение декодера
FFVideoSource("D:\FX2\Potoki_New\00000.mkv") #открытие видео
LoadPlugin("C:\Program Files\AutoYUY2\AutoYUY2.dll") #подключение плагина
AutoYUY2() # конверсия цветового пространства
LoadPlugin("C:\Program Files\ColorMatrix\ColorMatrix.dll") #подключение плагина
ColorMatrix(mode="Rec.709->Rec.601", inputFR=false, clamp=0) # 16-235
#ColorMatrix(mode="Rec.709->Rec.601", inputFR=true, clamp=0) # 0-255
BicubicResize(720, 480, 0, 0.5) #ресайз методом Catmull-Rom spline
AssumeFPS ("ntsc_film") #изменение частоты кадров под стандарт NTSC

Скриншоты настроек RCC

Оттуда же все аудиодорожки. Перекодированы из DTS-HD MA с помощью UsEac3To v0.9.2 + ArcSoft Decoder, SoundForge Pro 10.0.

Скриншоты кодирования звука




Основа для меню и разбивка на чаптеры как в этом ДВД [url=viewtopic.php?t=3681047]http://rutracker.org/forum/viewtopic.php?t=3681047[/url] (спасибо Нордер). Проект предварительно собран в DVD Architect Pro 5.0, из него получены субтитры sup. Новый проект собран в MuxMan 1.4.4 и заменён в DVDReMake Pro 3.6.4.

Лог MuxMan

MuxMan version 1.4.4
new project database size 400, base 2730018.
new pointer management list size 50.
new clipboard database size 20, base 71d050.
Accepted audio D:\FX2\Potoki_New\1Pozitiv.ac3
Accepted audio D:\FX2\Potoki_New\2Zhivov.ac3
Accepted audio D:\FX2\Potoki_New\3Gorchakov.ac3
Accepted audio D:\FX2\Potoki_New\4English.ac3
21:07:53 Begin multiplex VTS01.
Title Segment List
Segment_1 non-seamless
Encoded stream 20 is script stream 1.
Encoded stream 21 is script stream 2.
Buffering audio track 1 file D:\FX2\Potoki_New\1Pozitiv.ac3.
Buffering audio track 2 file D:\FX2\Potoki_New\2Zhivov.ac3.
Buffering audio track 3 file D:\FX2\Potoki_New\3Gorchakov.ac3.
Buffering audio track 4 file D:\FX2\Potoki_New\4English.ac3.
Maximum audio duration 389194 fields.
Multiplex delay set to 25257.
Positioned D:\FX2\Potoki_New\scrypt_MPEG2_DVD_NTSC(Mastering).m2v to 00:00:00:00
Starting scene Segment_1_scn1 at 00:00:00:00
Starting scene Segment_1_scn2 at 00:06:15:13, requested for 00:06:14:29
Starting scene Segment_1_scn3 at 00:13:09:05
Starting scene Segment_1_scn4 at 00:25:25:27
Starting scene Segment_1_scn5 at 00:36:26:07
Starting scene Segment_1_scn6 at 00:47:10:05
Starting scene Segment_1_scn7 at 00:55:20:10
Starting scene Segment_1_scn8 at 01:02:16:25
Starting scene Segment_1_scn9 at 01:05:23:21
Starting scene Segment_1_scn10 at 01:11:16:15
Starting scene Segment_1_scn11 at 01:14:40:27
Starting scene Segment_1_scn12 at 01:22:15:22
Starting scene Segment_1_scn13 at 01:28:54:13, requested for 01:28:53:29
Starting scene Segment_1_scn14 at 01:33:27:06
Starting scene Segment_1_scn15 at 01:38:19:07
Starting scene Segment_1_scn16 at 01:41:34:05
SeqEnd at DE84621E.
Bytes remaining in buffer = 0.
Bitrate - avg: 5490780, min: 2487880 (lba 2175539), max: 10147932 (lba 1355829).
Shortest GOP has 2 fields, longest GOP has 30 fields.
Fields: 389165, VOBU: 12890, Sectors: 2175859.
21:18:13 Begin multiplex VMG.
21:18:13 End multiplex.

Скриншот финального проекта

Бонусы:
- Theatrical Trailer (1:52)
Меню: статичное
Сэмпл: http://multi-up.com/1113037
Тип релиза: DVD5 (Custom)
Контейнер: DVD-Video
Видео: MPEG Video, NTSC, 720x480, VBR, 16:9, ~4500 Кбит/сек, 23,976 кадр/сек
Аудио: AC3, 2.0, 48,0 КГц, 192 Кбит/сек, stereo, русский - Позитив-Мультимедиа
Аудио 2: AC3, 2.0, 48,0 КГц, 192 Кбит/сек, stereo, русский - Живов
Аудио 3: AC3, 2.0, 48,0 КГц, 192 Кбит/сек, stereo, русский - Горчаков
Аудио 4: AC3, 2.0, 48,0 КГц, 192 Кбит/сек, stereo, english

MediaInfo

Общее
Полное имя : D:\Torrents\FX2 (BD - DVD5)\VIDEO_TS\VTS_01_1.VOB
Формат : MPEG-PS
Размер файла : 1024 Мбайт
Продолжительность : 28 м.
Режим общего битрейта : Переменный
Общий поток : 5004 Кбит/сек
Видео
Идентификатор : 224 (0xE0)
Формат : MPEG Video
Версия формата : Version 2
Профиль формата : Main@Main
Параметр BVOP формата : Да
Параметр матрицы формата : Выборочная
Параметр GOP формата : Variable
Продолжительность : 28 м.
Вид битрейта : Переменный
Битрейт : 4137 Кбит/сек
Максимальный битрейт : 8700 Кбит/сек
Ширина : 720 пикселей
Высота : 480 пикселей
Соотношение сторон : 16:9
Частота кадров : 23,976 кадра/сек
Стандарт вещания : NTSC
Цветовое пространство : YUV
Субдискретизация насыщенности : 4:2:0
Битовая глубина : 8 бит
Тип развёртки : Прогрессивная
Порядок развёртки : 2:3 Pulldown
Метод сжатия : С потерями
Бит/(Пиксели*Кадры) : 0.499
Размер потока : 846 Мбайт (83%)
Аудио #1
Идентификатор : 189 (0xBD)-128 (0x80)
Формат : AC-3
Формат/Информация : Audio Coding 3
Расширение режима : CM (complete main)
Параметр Endianness формата : Big
Режим смешивания : DVD-Video
Продолжительность : 28 м.
Вид битрейта : Постоянный
Битрейт : 192 Кбит/сек
Каналы : 2 канала
Расположение каналов : Front: L R
Частота : 48,0 КГц
Битовая глубина : 16 бит
Метод сжатия : С потерями
Размер потока : 39,3 Мбайт (4%)
Аудио #2
Идентификатор : 189 (0xBD)-129 (0x81)
Формат : AC-3
Формат/Информация : Audio Coding 3
Расширение режима : CM (complete main)
Параметр Endianness формата : Big
Режим смешивания : DVD-Video
Продолжительность : 28 м.
Вид битрейта : Постоянный
Битрейт : 192 Кбит/сек
Каналы : 2 канала
Расположение каналов : Front: L R
Частота : 48,0 КГц
Битовая глубина : 16 бит
Метод сжатия : С потерями
Размер потока : 39,3 Мбайт (4%)
Аудио #3
Идентификатор : 189 (0xBD)-130 (0x82)
Формат : AC-3
Формат/Информация : Audio Coding 3
Расширение режима : CM (complete main)
Параметр Endianness формата : Big
Режим смешивания : DVD-Video
Продолжительность : 28 м.
Вид битрейта : Постоянный
Битрейт : 192 Кбит/сек
Каналы : 2 канала
Расположение каналов : Front: L R
Частота : 48,0 КГц
Битовая глубина : 16 бит
Метод сжатия : С потерями
Размер потока : 39,3 Мбайт (4%)
Аудио #4
Идентификатор : 189 (0xBD)-131 (0x83)
Формат : AC-3
Формат/Информация : Audio Coding 3
Расширение режима : CM (complete main)
Параметр Endianness формата : Big
Режим смешивания : DVD-Video
Продолжительность : 28 м.
Вид битрейта : Постоянный
Битрейт : 192 Кбит/сек
Каналы : 2 канала
Расположение каналов : Front: L R
Частота : 48,0 КГц
Битовая глубина : 16 бит
Метод сжатия : С потерями
Размер потока : 39,3 Мбайт (4%)
Текст #1
Идентификатор : 189 (0xBD)-32 (0x20)
Формат : RLE
Формат/Информация : Run-length encoding
Режим смешивания : DVD-Video
Текст #2
Идентификатор : 189 (0xBD)-33 (0x21)
Формат : RLE
Формат/Информация : Run-length encoding
Режим смешивания : DVD-Video
Меню

DVDInfo

Title: FX2 (BD - DVD5)
Size: 4.22 Gb ( 4 419 852,00 KBytes ) - DVD-5
Enabled regions: 1, 2, 3, 4, 5, 6, 7, 8
VTS_01 :
Play Length: 01:48:06
Video: NTSC 16:9 (720x480) VBR, Auto Letterboxed
Audio:
Russian, AC3, 2/0 (L,R) ch, 192 kbps, Delay 0 mSec
Russian, AC3, 2/0 (L,R) ch, 192 kbps, Delay 0 mSec
Russian, AC3, 2/0 (L,R) ch, 192 kbps, Delay 0 mSec
English, AC3, 2/0 (L,R) ch, 192 kbps, Delay 0 mSec
Subtitles:
English
Russian
VTS_02 :
Play Length: 00:01:52
Video: NTSC 4:3 (720x480) VBR
Audio:
English, AC3, 2/0 (L,R) ch, 192 kbps, Delay 0 mSec
* Menus Information *
VIDEO_TS Menu
Video:
NTSC 4:3 (720x480) VBR
Auto Pan&Scan, Auto Letterboxed
English Language Unit :
Title Menu
VTS_01 Menu
Video:
NTSC 4:3 (720x480) VBR
Audio:
Not specified (LinearPCM, 2 ch)
English Language Unit :
Root Menu
Chapter (PTT) Menu
VTS_02 Menu
Video:
NTSC 4:3 (720x480) VBR
Auto Pan&Scan, Auto Letterboxed
English Language Unit :
Root Menu
Chapter (PTT) Menu

Скриншоты меню

Скриншоты

Скриншоты доп. материалов

Обзор других ДВД, имеющихся на трекере

[url=viewtopic.php?t=1394409]http://rutracker.org/forum/viewtopic.php?t=1394409[/url] - NTSC 4:3 с полосами сверху и снизу.
[url=viewtopic.php?t=1864261]http://rutracker.org/forum/viewtopic.php?t=1864261[/url] - NTSC 4:3 с полосами сверху и снизу.
[url=viewtopic.php?t=2419720]http://rutracker.org/forum/viewtopic.php?t=2419720[/url] - HDTVRip PAL 16:9.
[url=viewtopic.php?t=3681047]http://rutracker.org/forum/viewtopic.php?t=3681047[/url] - единственная 9-ка, но опять же PAL 4:3 с полосами сверху и снизу.
[url=viewtopic.php?t=4492397]http://rutracker.org/forum/viewtopic.php?t=4492397[/url] - NTSC 4:3 с полосами сверху и снизу, "сомнительно".
Аналогичная раздача первой части - [url=viewtopic.php?t=5256388]http://rutracker.org/forum/viewtopic.php?t=5256388[/url]

_________________
Показать сообщения:    

Текущее время: Сегодня 10:21

Часовой пояс: GMT



Вы не можете начинать темы
Вы не можете отвечать на сообщения
Вы не можете редактировать свои сообщения
Вы не можете удалять свои сообщения
Вы не можете голосовать в опросах
Вы не можете прикреплять файлы к сообщениям
Вы не можете скачивать файлы