Важное объявление!
У Нас Все раздачи мультитрекерные, при нуле пиров в релизах, можете смело вставать на закачку!
 
Автор Сообщение

HUNTER

Стаж:
4 года 5 месяцев
Сообщений:
60886

Репутация: 101

[+] [-]
Вне форума [Профиль] [ЛС]

- Иллюзия обмана / Now You See Me-

Год выпуска: 2013
Страна: Франция, США
Жанр: триллер, криминал
Продолжительность: 01:55:21
Перевод: Дублированное [лицензия]
Субтитры: English-В ролях: Джесси Айзенберг, Марк Руффало, Вуди Харрельсон, Мелани Лоран, Айла Фишер, Дэйв Франко, Майкл Кейн, Морган Фриман, Майкл Келли, Коммон
Режиссёр: Луи Летерье-Описание:-Команда лучших иллюзионистов мира проворачивает дерзкие ограбления прямо во время своих шоу, играя в кошки-мышки с агентами ФБР.-Качество: Blu-Ray Remux 1080p
Формат: MKV
Видео кодек: AVC
Аудио кодек: DTS, AC3
Видео: MPEG-4 AVC, 21 Мбит/с, 1920x1080, 23.976 fps
Аудио 1: Русский 48 kHz (AC3, 6 ch, 448 Кбит/с), (DTS, 6 ch, 1510 Кбит/с)
Аудио 2: Английский 48 kHz (DTS-HD MA, 6 ch, 5171 Кбит/с)
Аудио 3: Английский 48 kHz (DTS-HD MA, 8 ch, 1510 Кбит/с)

Рейтинг

MI

General
Unique ID : 227113234162676498442811095515651515716 (0xAADC6AF7D3EDF515A3E010ED833A2544)
Complete name : E:\Now.You.See.Me.2013.D.MPEG-4-AVC.BluRay-Remux(1080p).mkv
Format : Matroska
Format version : Version 4 / Version 2
File size : 22.9 GiB
Duration : 1h 55mn
Overall bit rate mode : Variable
Overall bit rate : 28.4 Mbps
Encoded date : UTC 2013-09-14 18:53:30
Writing application : mkvmerge v6.3.0 ('You can't stop me!') built on Jun 28 2013 20:09:41
Writing library : libebml v1.3.0 + libmatroska v1.4.0
Video
ID : 1
Format : AVC
Format/Info : Advanced Video Codec
Format profile : [url=mailto:High@L4.1]High@L4.1[/url]
Format settings, CABAC : Yes
Format settings, ReFrames : 4 frames
Codec ID : V_MPEG4/ISO/AVC
Duration : 1h 55mn
Bit rate mode : Variable
Maximum bit rate : 37.0 Mbps
Width : 1 920 pixels
Height : 1 080 pixels
Display aspect ratio : 16:9
Frame rate mode : Constant
Frame rate : 23.976 fps
Color space : YUV
Chroma subsampling : 4:2:0
Bit depth : 8 bits
Scan type : Progressive
Title : Now You See Me 2013 1080p Blu-ray AVC DTS-HD MA 7.1-HDWinG
Language : English
Default : Yes
Forced : Yes
Audio #1
ID : 2
Format : DTS
Format/Info : Digital Theater Systems
Mode : 16
Format settings, Endianness : Big
Codec ID : A_DTS
Duration : 1h 55mn
Bit rate mode : Constant
Bit rate : 1 510 Kbps
Channel(s) : 6 channels
Channel positions : Front: L C R, Side: L R, LFE
Sampling rate : 48.0 KHz
Bit depth : 16 bits
Compression mode : Lossy
Stream size : 1.22 GiB (5%)
Title : DTS 5.1 @ 1510 kbps - Dub, BD RUS
Language : Russian
Default : Yes
Forced : Yes
Audio #2
ID : 3
Format : AC-3
Format/Info : Audio Coding 3
Mode extension : CM (complete main)
Format settings, Endianness : Big
Codec ID : A_AC3
Duration : 1h 55mn
Bit rate mode : Constant
Bit rate : 448 Kbps
Channel(s) : 6 channels
Channel positions : Front: L C R, Side: L R, LFE
Sampling rate : 48.0 KHz
Bit depth : 16 bits
Compression mode : Lossy
Stream size : 370 MiB (2%)
Title : DD 5.1 @ 448 kbps - Dub, BD RUS
Language : Russian
Default : No
Forced : No
Audio #3
ID : 4
Format : DTS
Format/Info : Digital Theater Systems
Format profile : MA / Core
Mode : 16
Format settings, Endianness : Big
Codec ID : A_DTS
Duration : 1h 55mn
Bit rate mode : Variable
Bit rate : Unknown / 1 509 Kbps
Channel(s) : 8 channels / 6 channels
Channel positions : Front: L C R, Side: L R, Back: L R, LFE / Front: L C R, Side: L R, LFE
Sampling rate : 48.0 KHz
Bit depth : 24 bits
Compression mode : Lossless / Lossy
Title : DTS 5.1 @ 1510 kbps
Language : English
Default : No
Forced : No
Text
ID : 5
Format : UTF-8
Codec ID : S_TEXT/UTF8
Codec ID/Info : UTF-8 Plain Text
Language : English
Default : No
Forced : No
Menu
00:00:00.000 : en:00:00:00.000
00:07:41.794 : en:00:07:41.794
00:13:34.271 : en:00:13:34.271
00:20:17.466 : en:00:20:17.466
00:30:13.144 : en:00:30:13.144
00:37:35.169 : en:00:37:35.169
00:44:45.724 : en:00:44:45.724
00:51:15.905 : en:00:51:15.905
00:58:56.908 : en:00:58:56.908
01:04:31.909 : en:01:04:31.909
01:13:21.938 : en:01:13:21.938
01:20:44.130 : en:01:20:44.130
01:27:06.053 : en:01:27:06.053
01:35:46.448 : en:01:35:46.448
01:41:00.178 : en:01:41:00.178
01:45:47.507 : en:01:45:47.507

Скриншоты




_________________
Показать сообщения:    

Текущее время: Сегодня 12:13

Часовой пояс: GMT



Вы не можете начинать темы
Вы не можете отвечать на сообщения
Вы не можете редактировать свои сообщения
Вы не можете удалять свои сообщения
Вы не можете голосовать в опросах
Вы не можете прикреплять файлы к сообщениям
Вы не можете скачивать файлы
Наши партнеры: интернет магазин Ивановского трикотажа textilla.ru