Важное объявление!
У Нас Все раздачи мультитрекерные, при нуле пиров в релизах, можете смело вставать на закачку!
 
Автор Сообщение

HUNTER

Стаж:
4 года 7 месяцев
Сообщений:
61500

Репутация: 101

[+] [-]
Вне форума [Профиль] [ЛС]

Иллюзия обмана 2 / Now You See Me 2
Страна: США, Китай, Великобритания, Канада
Студия: Lionsgate, Summit Entertainment
Жанр: боевик, триллер, комедия, криминал, детектив, приключения
Год выпуска: 2016
Продолжительность: 02:09:06
Перевод: Профессиональный (дублированный)
Cубтитры: русские (полные), английские (полные, SDH)
Оригинальная аудиодорожка: английский
Режиссер: Джон М. Чу / Jon Chu
В ролях: Джесси Айзенберг, Марк Руффало, Вуди Харрельсон, Дэйв Франко, Дэниэл Рэдклифф, Лиззи Каплан, Джей Чоу, Санаа Лэтэн, Майкл Кейн, Морган Фриман, Дэвид Уоршофски, Тсаи Чин
Описание: «Четыре всадника», команда лучших иллюзионистов мира, снова в сборе! Их «магия» стала еще совершеннее, а враги - опаснее. На сей раз им предстоит спасти свою репутацию и вывести на чистую воду жестокого техномагната...
Доп. информация: Исходником послужил лицензионный DVD9.
http://bgb91.com/movie/433715-now-you-see-me-2-2016-ntsc-dvd9-p2p.html
Испанская звуковая дорожка заменена на русскую вместе с субтитрами.
[url=viewtopic.php?t=5275943]http://rutracker.org/forum/viewtopic.php?t=5275943[/url]
Фильм по умолчанию стартует с русской звуковой дорогой.
Использовались программы:
MKVExtractGUI2, PgcDemux, DVD ReMake Pro, Adobe PhotoShop, MuxMan, MaestroSBT, DVDSubEdit.
Бонусы: Фильм о фильме. Анонсы. (без перевода)
Меню: Анимированное, озвученное
Сэмпл: http://multi-up.com/1119283
Тип релиза: DVD9 (Custom)
Контейнер: DVD-Video
Видео: NTSC 16:9 (720x480) VBR
Аудио: English (Dolby AC3, 448 Кбит/сек, 6 ch)
Аудио 2: Russian (Dolby AC3, 448 Кбит/сек, 6 ch)
Аудио 3: English (Dolby AC3, 192 Кбит/сек, 2 ch)
Аудио 4: English (Dolby AC3, 192 Кбит/сек, 2 ch)
Формат субтитров: softsub (SRT)

DVDInfo

Size: 6.77 Gb ( 7 096 110 KBytes ) - DVD-9
Enabled regions: 1, 2, 3, 4, 5, 6, 7, 8
VTS_01 :
Play Length: 02:09:06
Video: NTSC 16:9 (720x480) VBR, Auto Pan&Scan
Audio:
English (Dolby AC3, 6 ch)
Russian (Dolby AC3, 6 ch)
English (Dolby AC3, 2 ch)
English (Dolby AC3, 2 ch)
Subtitles:
English
English
Russian
VTS_02 :
Play Length: 00:00:23
Video: NTSC 16:9 (720x480) VBR, Auto Pan&Scan
Audio:
English (Dolby AC3, 2 ch)
VTS_03 :
Play Length: 00:17:13
Video: NTSC 16:9 (720x480) VBR, Auto Pan&Scan
Audio:
English (Dolby AC3, 2 ch)
VTS_04 :
Play Length: 00:09:15
Video: NTSC 16:9 (720x480) VBR, Auto Pan&Scan
Audio:
English (Dolby AC3, 6 ch)
Menu Video:
NTSC 4:3 (720x480) VBR
Menu English Language Unit :
Root Menu
Angle menu

MediaInfo

Format : MPEG-PS
File size : 1 024 MiB
Duration : 22mn 34s
Overall bit rate mode : Variable
Overall bit rate : 6 340 Kbps
Video
ID : 224 (0xE0)
Format : MPEG Video
Format version : Version 2
Format profile : Main@Main
Format settings, BVOP : Yes
Format settings, Matrix : Custom
Format settings, GOP : Variable
Duration : 22mn 34s
Bit rate mode : Variable
Bit rate : 4 934 Kbps
Maximum bit rate : 7 800 Kbps
Width : 720 pixels
Height : 480 pixels
Display aspect ratio : 16:9
Frame rate : 23.976 fps
Standard : NTSC
Color space : YUV
Chroma subsampling : 4:2:0
Bit depth : 8 bits
Scan type : Progressive
Scan order : 2:3 Pulldown
Compression mode : Lossy
Bits/(Pixel*Frame) : 0.595
Time code of first frame : 00:59:59:00
Time code source : Group of pictures header
Stream size : 797 MiB (78%)
Audio #1
ID : 189 (0xBD)-128 (0x80)
Format : AC-3
Format/Info : Audio Coding 3
Mode extension : CM (complete main)
Format settings, Endianness : Big
Muxing mode : DVD-Video
Duration : 22mn 34s
Bit rate mode : Constant
Bit rate : 448 Kbps
Channel(s) : 6 channels
Channel positions : Front: L C R, Side: L R, LFE
Sampling rate : 48.0 KHz
Bit depth : 16 bits
Compression mode : Lossy
Stream size : 72.3 MiB (7%)
Audio #2
ID : 189 (0xBD)-129 (0x81)
Format : AC-3
Format/Info : Audio Coding 3
Mode extension : CM (complete main)
Format settings, Endianness : Big
Muxing mode : DVD-Video
Duration : 22mn 34s
Bit rate mode : Constant
Bit rate : 448 Kbps
Channel(s) : 6 channels
Channel positions : Front: L C R, Side: L R, LFE
Sampling rate : 48.0 KHz
Bit depth : 16 bits
Compression mode : Lossy
Stream size : 72.3 MiB (7%)
Audio #3
ID : 189 (0xBD)-130 (0x82)
Format : AC-3
Format/Info : Audio Coding 3
Format profile : Dolby Digital
Mode extension : CM (complete main)
Format settings, Endianness : Big
Muxing mode : DVD-Video
Duration : 22mn 34s
Bit rate mode : Constant
Bit rate : 192 Kbps
Channel(s) : 2 channels
Channel positions : Front: L R
Sampling rate : 48.0 KHz
Bit depth : 16 bits
Compression mode : Lossy
Stream size : 31.0 MiB (3%)
Audio #4
ID : 189 (0xBD)-131 (0x83)
Format : AC-3
Format/Info : Audio Coding 3
Format profile : Dolby Digital
Mode extension : CM (complete main)
Format settings, Endianness : Big
Muxing mode : DVD-Video
Duration : 22mn 34s
Bit rate mode : Constant
Bit rate : 192 Kbps
Channel(s) : 2 channels
Channel positions : Front: L R
Sampling rate : 48.0 KHz
Bit depth : 16 bits
Compression mode : Lossy
Stream size : 31.0 MiB (3%)
Text #1
ID : 189 (0xBD)-32 (0x20)
Format : RLE
Format/Info : Run-length encoding
Muxing mode : DVD-Video
Text #2
ID : 189 (0xBD)-33 (0x21)
Format : RLE
Format/Info : Run-length encoding
Muxing mode : DVD-Video
Text #3
ID : 189 (0xBD)-34 (0x22)
Format : RLE
Format/Info : Run-length encoding
Muxing mode : DVD-Video

Скриншоты меню

Скриншоты

Скриншоты доп. материалов

Скриншоты смены слоя


_________________
Показать сообщения:    

Текущее время: Сегодня 15:55

Часовой пояс: GMT



Вы не можете начинать темы
Вы не можете отвечать на сообщения
Вы не можете редактировать свои сообщения
Вы не можете удалять свои сообщения
Вы не можете голосовать в опросах
Вы не можете прикреплять файлы к сообщениям
Вы не можете скачивать файлы
Наши партнеры: интернет магазин Ивановского трикотажа textilla.ru