Важное объявление!
У Нас Все раздачи мультитрекерные, при нуле пиров в релизах, можете смело вставать на закачку!
 
Автор Сообщение

димитри37

Стаж:
3 года 11 месяцев
Сообщений:
1236

Репутация: 127

[+] [-]
Вне форума [Профиль] [ЛС]

Из жизни отдыхающих-
Жанр: мелодрама
Год выпуска: 1980
Продолжительность: 01:19:36-Режиссёр: Николай Губенко-В ролях:
Регимантас Адомайтис - Алексей Павлищев (озвучивал Николай Губенко)
Жанна Болотова - Надежда Андреевна
Георгий Бурков - Аркадий Павлович
Ролан Быков - массовик
Анатолий Солоницын - Толик Чикин
Лидия Федосеева-Шукшина - Оксана
Мария Виноградова - Марго
Виктор Филиппов - тракторист
Тамара Якобсон - Ольга Николаевна
Описание: Крымские пансионаты в межсезонье. Скучающая публика. В одном из таких пансионатов, в обстановке бесконечных разговоров о здоровье и его отсутствии, пересказов бытовых драм и обязательного курортного флирта зарождается любовь двух немолодых людей с уже сложившимися судьбами. Он - талантливый хирург, переживающий душевный кризис, она - разведена и имеет уже взрослую дочь...- -Качество видео: DVDRip-AVC
Формат видео: MKV
Видео: x264 (High@L4.1); Анаморф 716@763х576; Display aspect ratio: 4:3, 25.000 fps, 2388 Kbps
Аудио: Оригинал AC-3; 16 bit 48 Khz; 1ch 224 Kbps; CBR

MediaInfo + x264 log

General
Unique ID : 173864276245904015177170521458917391422 (0x82CD0AA584DFB3C39319F2B360DE3C3E)
Complete name : Из жизни отдыхающих.1980.mkv
Format : Matroska
Format version : Version 2
File size : 1.45 GiB
Duration : 1h 19mn
Overall bit rate : 2 614 Kbps
Movie name : «Из жизни отдыхающих»
Encoded date : UTC 2013-04-06 15:24:51
Writing application : mkvmerge v5.8.0 ('No Sleep / Pillow') built on Sep 2 2012 15:37:04
Writing library : libebml v1.2.3 + libmatroska v1.3.0
Comment : DVDRip-AVC
Original date released : April 6th 2013
Encoded by : imgeorgest®
Video
ID : 1
Format : AVC
Format/Info : Advanced Video Codec
Format profile : High@L4.1
Format settings, CABAC : Yes
Format settings, ReFrames : 13 frames
Codec ID : V_MPEG4/ISO/AVC
Duration : 1h 19mn
Bit rate : 2 388 Kbps
Width : 716 pixels
Height : 576 pixels
Display aspect ratio : 4:3
Original display aspect ratio : 4:3
Frame rate : 25.000 fps
Color space : YUV
Chroma subsampling : 4:2:0
Bit depth : 8 bits
Scan type : Progressive
Bits/(Pixel*Frame) : 0.232
Stream size : 1.30 GiB (89%)
Title : Из жизни отдыхающих.1980
Writing library : x264 core 125 r2200 999b753
Encoding settings : cabac=1 / ref=13 / deblock=1:-2:-1 / analyse=0x3:0x133 / me=umh / subme=11 / psy=1 / psy_rd=1.00:0.10 / mixed_ref=1 / me_range=48 / chroma_me=1 / trellis=2 / 8x8dct=1 / cqm=0 / deadzone=21,11 / fast_pskip=0 / chroma_qp_offset=-3 / threads=12 / lookahead_threads=2 / sliced_threads=0 / nr=0 / decimate=0 / interlaced=0 / bluray_compat=0 / constrained_intra=0 / bframes=7 / b_pyramid=2 / b_adapt=2 / b_bias=0 / direct=3 / weightb=1 / open_gop=0 / weightp=2 / keyint=250 / keyint_min=25 / scenecut=40 / intra_refresh=0 / rc_lookahead=60 / rc=2pass / mbtree=1 / bitrate=2388 / ratetol=1.0 / qcomp=0.70 / qpmin=0 / qpmax=69 / qpstep=4 / cplxblur=20.0 / qblur=0.5 / vbv_maxrate=50000 / vbv_bufsize=62500 / nal_hrd=none / ip_ratio=1.40 / aq=2:1.10
Language : Russian
Default : Yes
Forced : No
Color primaries : BT.470-6 System B, BT.470-6 System G, BT.601-6 625, BT.1358 625, BT.1700 625 PAL, BT.1700 625 SECAM
Transfer characteristics : BT.470-6 System B, BT.470-6 System G
Matrix coefficients : BT.470-6 System B, BT.470-6 System G, BT.601-6 625, BT.1358 625, BT.1700 625 PAL, BT.1700 625 SECAM, IEC 61966-2-4 601
Audio
ID : 2
Format : AC-3
Format/Info : Audio Coding 3
Mode extension : CM (complete main)
Codec ID : A_AC3
Duration : 1h 19mn
Bit rate mode : Constant
Bit rate : 224 Kbps
Channel(s) : 1 channel
Channel positions : Front: C
Sampling rate : 48.0 KHz
Bit depth : 16 bits
Compression mode : Lossy
Stream size : 128 MiB (9%)
Title : Оригинал AC-3; 16 bit 48 Khz; 1ch 224 Kbps; CBR
Language : Russian
Default : Yes
Forced : No--...last pass...
x264.exe: --pass 2 --bitrate 2388 --preset medium --ref 13 --aq-mode 2 --aq-strength 1.1 --deblock -2:-1 --merange 48 --bframes 7 --direct auto --b-adapt 2 --trellis 2 --no-fast-pskip --no-dct-decimate --psy-rd 1.00:0.10 --qcomp 0.70 --vbv-maxrate 50000 --vbv-bufsize 62500 --partitions all --subme 11 --me umh --slow-firstpass --rc-lookahead 60 --colorprim bt470bg --transfer bt470bg --colormatrix bt470bg --sar 16:15 --stats "K:\Из жизни отдыхающих.1980.log" --output "K:\Из жизни отдыхающих.1980.mkv" "L:\Temp\1311.avs"
avs [info]: 716x576p 16:15 @ 25/1 fps (cfr)
x264 [info]: using SAR=16/15
x264 [info]: using cpu capabilities: MMX2 SSE2Fast SSSE3 FastShuffle SSE4.2
x264 [info]: profile High, level 4.1
x264 [info]: frame I:573 Avg QP:18.92 size: 54272
x264 [info]: frame P:23152 Avg QP:19.74 size: 28967
x264 [info]: frame B:95693 Avg QP:23.05 size: 7566
x264 [info]: consecutive B-frames: 0.8% 0.4% 13.5% 1.4% 1.7% 81.9% 0.3% 0.0%
x264 [info]: mb I I16..4: 4.5% 88.9% 6.7%
x264 [info]: mb P I16..4: 0.3% 20.5% 0.5% P16..4: 30.3% 31.2% 11.4% 3.7% 0.4% skip: 1.8%
x264 [info]: mb B I16..4: 0.0% 2.2% 0.0% B16..8: 38.2% 15.1% 2.1% direct: 6.9% skip:35.4% L0:34.8% L1:39.2% BI:26.1%
x264 [info]: 8x8 transform intra:95.9% inter:66.6%
x264 [info]: direct mvs spatial:99.2% temporal:0.8%
x264 [info]: coded y,uvDC,uvAC intra: 96.4% 87.2% 58.7% inter: 29.6% 29.3% 10.7%
x264 [info]: i16 v,h,dc,p: 39% 14% 6% 41%
x264 [info]: i8 v,h,dc,ddl,ddr,vr,hd,vl,hu: 14% 13% 20% 7% 8% 8% 9% 10% 13%
x264 [info]: i4 v,h,dc,ddl,ddr,vr,hd,vl,hu: 15% 10% 4% 8% 14% 15% 13% 11% 11%
x264 [info]: i8c dc,h,v,p: 39% 26% 21% 14%
x264 [info]: Weighted P-Frames: Y:19.1% UV:8.9%
x264 [info]: ref P L0: 43.3% 13.5% 15.3% 6.9% 5.1% 4.0% 3.4% 2.0% 1.7% 1.5% 1.2% 1.0% 0.8% 0.3% 0.0%
x264 [info]: ref B L0: 85.0% 8.9% 2.3% 1.1% 0.8% 0.6% 0.5% 0.3% 0.2% 0.2% 0.1% 0.1%
x264 [info]: ref B L1: 96.0% 4.0%
x264 [info]: kb/s:2387.89
x264 [total]: encoded 119418 frames, 12.39 fps, 2387.89 kb/s

Скриншоты

Исходник

Показать сообщения:    

Текущее время: Сегодня 07:05

Часовой пояс: GMT



Вы не можете начинать темы
Вы не можете отвечать на сообщения
Вы не можете редактировать свои сообщения
Вы не можете удалять свои сообщения
Вы не можете голосовать в опросах
Вы не можете прикреплять файлы к сообщениям
Вы не можете скачивать файлы
Наши партнеры: интернет магазин Ивановского трикотажа textilla.ru