Ивановский Торрент трекер
Яндекс.Погода
 

[Цитировать]
HUNTER

Извлечение / Extracted-Год выпуска: 2012
Страна: США
Жанр: Фантастика, драма
Продолжительность: 01:28:53
Перевод: Профессиональный многоголосый (закадровый)
Субтитры: Есть (Danish, Finnish, Norwegian, Swedish)-В ролях: Саша Ройз, Дженни Моллен, Доминик Богарт, Ричард Риле, Ник Джеймисон, Родни Истман, Фрэнк Эшмор, Брэд Калвер, Тай Симпкинс, Сара Томко
Режиссёр: Нир Панири-Описание:
Главный герой Томас Джейкобс изобретает способ проникать в память людей и просматривать их воспоминания «своими глазами». Так он может возвращаться в собственные воспоминания и снова переживать счастливые моменты своей жизни. Но однажды Том вынужден действовать в разрез своим моральным принципам и использовать своё изобретение, чтобы войти в воспоминания одного наркомана и в буквальном смысле слова увидеть, совершал ли он преступление, в котором его обвиняют. Однако по причине повреждённости сознания преступника наркотиками, Том оказывается пойман в ловушке внутри его головы. Теперь ему предстоит прожить в памяти наркомана почти четыре года, до тех пор, пока он не обнаружит долгожданную возможность побега.-Качество: Blu-Ray
Формат: BDMV
Видео кодек: H.264/AVC
Аудио кодек: DTS-HD MA 5.1
Видео: 1920x1080, 23,976 fps (16:9), High Profile 4.1, 22027 kbps
Аудио #1: Русский, AC3 5.1, 640 кбит/с
Аудио #2 Английский, DTS-HD MA 5.1, 1510 кбит/с-

BD Info

DISC INFO:
Disc Title: EXTRACTED_BLUEBIRD
Disc Size: 18 778 525 525 bytes
Protection: AACS
BD-Java: Yes
BDInfo: 0.5.8
PLAYLIST REPORT:
Name: 01006.MPLS
Length: 1:28:53.286 (h:m:s.ms)
Size: 18 351 624 192 bytes
Total Bitrate: 27,53 Mbps
VIDEO:
Codec Bitrate Deion
----- ------- -----------
MPEG-4 AVC Video 22027 kbps 1080p / 23,976 fps / 16:9 / High Profile 4.1
AUDIO:
Codec Language Bitrate Deion
----- -------- ------- -----------
Dolby Digital Audio Russian 640 kbps 5.1 / 48 kHz / 640 kbps / DN -4dB
DTS-HD Master Audio English 3253 kbps 5.1 / 48 kHz / 3253 kbps / 24-bit (DTS Core: 5.1 / 48 kHz / 1509 kbps / 24-bit)
SUBTITLES:
Codec Language Bitrate Deion
----- -------- ------- -----------
Presentation Graphics Danish 26,595 kbps
Presentation Graphics Finnish 27,177 kbps
Presentation Graphics Norwegian 25,630 kbps
Presentation Graphics Swedish 25,639 kbps
FILES:
Name Time In Length Size Total Bitrate
---- ------- ------ ---- -------------
00003.M2TS 0:00:00.000 1:28:53.286 18 351 624 192 27 528
CHAPTERS:
Number Time In Length Avg Video Rate Max 1-Sec Rate Max 1-Sec Time Max 5-Sec Rate Max 5-Sec Time Max 10Sec Rate Max 10Sec Time Avg Frame Size Max Frame Size Max Frame Time
------ ------- ------ -------------- -------------- -------------- -------------- -------------- -------------- -------------- -------------- -------------- --------------
1 0:00:00.000 0:08:10.948 21 453 kbps 39 831 kbps 00:05:45.887 37 681 kbps 00:05:44.886 37 090 kbps 00:05:39.881 111 836 bytes 522 451 bytes 00:02:32.694
2 0:08:10.948 0:08:25.046 21 766 kbps 40 048 kbps 00:09:53.259 37 552 kbps 00:09:53.259 34 675 kbps 00:09:53.259 113 477 bytes 650 329 bytes 00:09:05.878
3 0:16:35.994 0:09:11.008 20 441 kbps 44 422 kbps 00:18:19.515 39 021 kbps 00:18:15.886 37 842 kbps 00:18:10.881 106 572 bytes 653 577 bytes 00:21:10.727
4 0:25:47.003 0:09:34.949 19 059 kbps 41 922 kbps 00:33:40.143 35 327 kbps 00:33:39.142 32 615 kbps 00:32:08.301 99 363 bytes 534 491 bytes 00:25:49.047
5 0:35:21.953 0:10:22.038 20 642 kbps 37 427 kbps 00:39:31.160 33 650 kbps 00:35:22.328 32 265 kbps 00:37:38.130 107 619 bytes 654 067 bytes 00:39:31.202
6 0:45:43.991 0:07:57.977 23 815 kbps 47 229 kbps 00:50:28.108 39 968 kbps 00:49:19.122 38 396 kbps 00:49:18.956 124 160 bytes 660 178 bytes 00:51:34.341
7 0:53:41.968 0:08:20.958 23 979 kbps 47 244 kbps 00:58:11.362 39 267 kbps 00:58:10.737 33 247 kbps 01:01:23.221 125 013 bytes 649 005 bytes 00:56:41.189
8 1:02:02.927 0:06:12.997 24 894 kbps 46 158 kbps 01:07:55.905 38 413 kbps 01:07:41.599 37 540 kbps 01:07:36.594 129 786 bytes 646 236 bytes 01:07:49.398
9 1:08:15.925 0:05:46.971 29 007 kbps 45 687 kbps 01:12:51.658 39 729 kbps 01:13:18.936 38 029 kbps 01:13:45.921 151 230 bytes 671 879 bytes 01:11:55.144
10 1:14:02.896 0:08:06.027 25 003 kbps 43 187 kbps 01:19:28.472 38 585 kbps 01:19:26.261 37 600 kbps 01:19:26.303 130 355 bytes 655 759 bytes 01:19:26.344
11 1:22:08.924 0:02:57.969 29 768 kbps 41 520 kbps 01:24:19.345 36 572 kbps 01:22:34.199 35 701 kbps 01:23:14.698 155 194 bytes 660 015 bytes 01:24:25.685
12 1:25:06.893 0:01:33.051 395 kbps 2 918 kbps 01:26:31.686 1 120 kbps 01:26:29.058 924 kbps 01:26:27.056 2 061 bytes 45 834 bytes 01:26:32.562
13 1:26:39.944 0:02:06.960 5 172 kbps 8 973 kbps 01:26:54.292 8 211 kbps 01:26:50.538 7 551 kbps 01:26:47.535 26 963 bytes 154 254 bytes 01:26:50.580
14 1:28:46.904 0:00:06.381 160 kbps 582 kbps 01:28:46.904 181 kbps 01:28:46.904 0 kbps 00:00:00.000 840 bytes 20 847 bytes 01:28:46.946

mediainfo

General
ID : 0 (0x0)
Complete name : E:EXTRACTED_BLUEBIRDBDMVSTREAM�0003.m2ts
Format : BDAV
Format/Info : Blu-ray Video
File size : 17.1 GiB
Duration : 1h 28mn
Overall bit rate mode : Variable
Overall bit rate : 27.5 Mbps
Maximum Overall bit rate : 48.0 Mbps
Video
ID : 4113 (0x1011)
Menu ID : 1 (0x1)
Format : AVC
Format/Info : Advanced Video Codec
Format profile : High@L4.1
Format settings, CABAC : Yes
Format settings, ReFrames : 4 frames
Format settings, GOP : M=3, N=18
Codec ID : 27
Duration : 1h 28mn
Bit rate mode : Variable
Bit rate : 24.2 Mbps
Maximum bit rate : 37.0 Mbps
Width : 1 920 pixels
Height : 1 080 pixels
Display aspect ratio : 16:9
Frame rate : 23.976 fps
Standard : NTSC
Color space : YUV
Chroma subsampling : 4:2:0
Bit depth : 8 bits
Scan type : Progressive
Bits/(Pixel*Frame) : 0.487
Stream size : 15.0 GiB (88%)
Color primaries : BT.709
Transfer characteristics : BT.709
Matrix coefficients : BT.709
Audio #1
ID : 4352 (0x1100)
Menu ID : 1 (0x1)
Format : AC-3
Format/Info : Audio Coding 3
Mode extension : CM (complete main)
Format settings, Endianness : Big
Codec ID : 129
Duration : 1h 28mn
Bit rate mode : Constant
Bit rate : 640 Kbps
Channel(s) : 6 channels
Channel positions : Front: L C R, Side: L R, LFE
Sampling rate : 48.0 KHz
Bit depth : 16 bits
Compression mode : Lossy
Stream size : 407 MiB (2%)
Audio #2
ID : 4353 (0x1101)
Menu ID : 1 (0x1)
Format : DTS
Format/Info : Digital Theater Systems
Format profile : MA / Core
Muxing mode : Stream extension
Codec ID : 134
Duration : 1h 28mn
Bit rate mode : Variable
Bit rate : 1 561 Kbps / 1 510 Kbps
Channel(s) : 6 channels
Channel positions : Front: L C R, Side: L R, LFE
Sampling rate : 48.0 KHz
Bit depth : 24 bits
Compression mode : Lossless / Lossy
Text #1
ID : 4608 (0x1200)
Menu ID : 1 (0x1)
Format : PGS
Codec ID : 144
Text #2
ID : 4609 (0x1201)
Menu ID : 1 (0x1)
Format : PGS
Codec ID : 144
Text #3
ID : 4610 (0x1202)
Menu ID : 1 (0x1)
Format : PGS
Codec ID : 144
Text #4
ID : 4611 (0x1203)
Menu ID : 1 (0x1)
Format : PGS
Codec ID : 144

Скриншоты



Показать сообщения:    

Текущее время: 16-Дек 07:30

Часовой пояс: UTC ± 0


Вы не можете начинать темы
Вы не можете отвечать на сообщения
Вы не можете редактировать свои сообщения
Вы не можете удалять свои сообщения
Вы не можете голосовать в опросах
Вы не можете прикреплять файлы к сообщениям
Вы не можете скачивать файлы

!ВНИМАНИЕ!
Сайт не предоставляет электронные версии произведений, а занимается лишь коллекционированием и каталогизацией ссылок, присылаемых и публикуемых на форуме нашими читателями. Если вы являетесь правообладателем какого-либо представленного материала и не желаете, чтобы ссылка на него находилась в нашем каталоге, свяжитесь с нами, и мы незамедлительно удалим ее. Файлы для обмена на трекере предоставлены пользователями сайта, и администрация не несет ответственности за их содержание. Просьба не заливать файлы, защищенные авторскими правами, а также файлы нелегального содержания!