Важное объявление!
У Нас Все раздачи мультитрекерные, при нуле пиров в релизах, можете смело вставать на закачку!
 
Автор Сообщение

HUNTER

Стаж:
4 года 6 месяцев
Сообщений:
61006

Репутация: 101

[+] [-]
Вне форума [Профиль] [ЛС]

Извините, ошиблись номером / Sorry, Wrong Number
Страна: США
Жанр: фильм-нуар, триллер, драма
Год выпуска: 1948
Продолжительность: 01:25:01
Перевод: Профессиональный (многоголосый закадровый)
Cубтитры: английские
Оригинальная аудиодорожка: английский-Режиссер: Анатоль Литвак / Anatole Litvak
В ролях: Барбара Стэнвик, Бёрт Ланкастер, Уенделл Кори, Гарольд Вермилеа, Эд Бегли, Энн Ричардс, Лейф Эриксон, Уильям Конрад (I), Джон Бромфилд, Джимми Хант, Дороти Ньюманн, Пол Фиерро
Описание: По мотивам одноименной пьесы Люсиль Флетчер.
Леона Стевенсон (Барбара Стэнвик) - очаровательная и богатая молодая леди, однако она больна и прикована к постели, отчего страдает ипохондрией. Однажды ночью, ожидая возвращения мужа, она поднимает трубку и случайно подслушивает беседу между двумя мужчинами, планирующими убийство. Отчаяние охватывает ее, поскольку она не может угадать, кто жертва и предотвратить преступление.
IMDb || КиноПоиск-Тип релиза: HDTV 1080i [Sorry, Wrong Number 1948 1080i HDTV DD2.0 H.264-EV1LAS]
Контейнер: MKV
Видео: H.264/AVC, 1920x1080 at 25.000 fps, ~13.4 Mbps
Аудио#1: Russian: 48 kHz, AC3, 2.0 ch, 192 kbps |Многоголосый закадровый|
Аудио#2: English: 48 kHz, AC3, 2.0 ch, 384 kbps
Формат субтитров: softsub (SRT)
Сэмпл

MediaInfo

Complete name : O:\Рутрекер\Извините, ошиблись номером\Sorry wrong number.1948.1080i.HDTV. rutracker.mkv
Format : Matroska
Format version : Version 2
File size : 8.50 GiB
Duration : 1h 25mn
Overall bit rate mode : Variable
Overall bit rate : 14.3 Mbps
Movie name : Release for RuTracker
Encoded date : UTC 2013-10-04 00:40:36
Writing application : mkvmerge v5.0.1 ('Es ist Sommer') built on Nov 6 2011 16:23:40
Writing library : libebml v1.2.2 + libmatroska v1.3.0
Video
ID : 1
Format : AVC
Format/Info : Advanced Video Codec
Format profile : Main@L4.0
Format settings, CABAC : Yes
Format settings, ReFrames : 4 frames
Format settings, GOP : M=4, N=12
Codec ID : V_MPEG4/ISO/AVC
Duration : 1h 25mn
Bit rate mode : Variable
Bit rate : 13.4 Mbps
Maximum bit rate : 40.0 Mbps
Width : 1 920 pixels
Height : 1 080 pixels
Display aspect ratio : 16:9
Frame rate : 50.000 fps
Original frame rate : 25.000 fps
Color space : YUV
Chroma subsampling : 4:2:0
Bit depth : 8 bits
Scan type : Interlaced
Scan order : Top Field First
Bits/(Pixel*Frame) : 0.130
Stream size : 7.99 GiB (94%)
Title : Sorry wrong number.1948.1080i.HDTV. rutracker
Language : English
Default : Yes
Forced : No
Color primaries : BT.709-5, BT.1361, IEC 61966-2-4, SMPTE RP177
Transfer characteristics : BT.709-5, BT.1361
Matrix coefficients : BT.709-5, BT.1361, IEC 61966-2-4 709, SMPTE RP177
Audio #1
ID : 2
Format : AC-3
Format/Info : Audio Coding 3
Mode extension : CM (complete main)
Codec ID : A_AC3
Duration : 1h 25mn
Bit rate mode : Constant
Bit rate : 192 Kbps
Channel(s) : 2 channels
Channel positions : Front: L R
Sampling rate : 48.0 KHz
Bit depth : 16 bits
Compression mode : Lossy
Stream size : 117 MiB (1%)
Language : Russian
Default : Yes
Forced : No
Audio #2
ID : 3
Format : AC-3
Format/Info : Audio Coding 3
Format profile : Dolby Digital
Mode extension : CM (complete main)
Codec ID : A_AC3
Duration : 1h 25mn
Bit rate mode : Constant
Bit rate : 384 Kbps
Channel(s) : 2 channels
Channel positions : Front: L R
Sampling rate : 48.0 KHz
Bit depth : 16 bits
Compression mode : Lossy
Stream size : 234 MiB (3%)
Language : English
Default : No
Forced : No
Text
ID : 4
Format : UTF-8
Codec ID : S_TEXT/UTF8
Codec ID/Info : UTF-8 Plain Text
Language : English
Default : No
Forced : No

Скриншоты


_________________
Показать сообщения:    

Текущее время: Сегодня 01:50

Часовой пояс: GMT



Вы не можете начинать темы
Вы не можете отвечать на сообщения
Вы не можете редактировать свои сообщения
Вы не можете удалять свои сообщения
Вы не можете голосовать в опросах
Вы не можете прикреплять файлы к сообщениям
Вы не можете скачивать файлы
Наши партнеры: интернет магазин Ивановского трикотажа textilla.ru