Важное объявление!
У Нас Все раздачи мультитрекерные, при нуле пиров в релизах, можете смело вставать на закачку!
 
Автор Сообщение

HUNTER

Стаж:
4 года 9 месяцев
Сообщений:
65013

Репутация: 101

[+] [-]
Вне форума [Профиль] [ЛС]

Извержение
Дата/Год выпуска: 1975
Страна: СССР
Жанр: Документальный фильм
Продолжительность: 00:14:59
Перевод: Не требуется
Русские субтитры: нет
Оригинальная аудиодорожка: русский
Режиссер: Горбиков В.
Телеканал: Камчатское ТВ
Описание: Фильм о работе экспедиции вулканологов во время извержения Ключевского вулкана на Камчатке в 1974 году.
Сэмпл: http://multi-up.com/1044046
качество: VHSRip
формат: AVI
Видео: 720x576 (1.25:1), 25 fps, DivX Codec 5.x or 6.x ~2396 kbps avg, 0.23 bit/pixel
Аудио: 44.100 kHz, MPEG Layer 3, 1 ch, ~128.00 kbps avg

MediaInfo

ОбщееПолное имя : D:\TEMP TORRENT\Новая папка\Izverzhenie.aviФормат : AVIФормат/Информация : Audio Video InterleaveРазмер файла : 272 МбайтПродолжительность : 14 м.Общий поток : 2538 Кбит/секПрограмма кодирования : MEncoder SVN-r33883(20110719-gcc4.5.2)Библиотека кодирования : MPlayer
ВидеоИдентификатор : 0Формат : MPEG-4 VisualПрофиль формата : Simple@L1Параметр BVOP формата : НетПараметр QPel формата : НетПараметр GMC формата : Без точки переходаПараметр матрицы формата : Default (H.263)Идентификатор кодека : DX50Идентификатор кодека/Подсказка : DivX 5Продолжительность : 14 м.Битрейт : 2397 Кбит/секШирина : 720 пикселейВысота : 576 пикселейСоотношение сторон : 5:4Частота кадров : 25,000 кадров/секСтандарт вещания : PALЦветовое пространство : YUVСубдискретизация насыщенности : 4:2:0Битовая глубина : 8 битТип развёртки : ПрогрессивнаяМетод сжатия : С потерямиБит/(Пиксели*Кадры) : 0.231Размер потока : 257 Мбайт (94%)Библиотека кодирования : Lavc53.8.0
АудиоИдентификатор : 1Формат : MPEG AudioВерсия формата : Version 1Профиль формата : Layer 3Идентификатор кодека : 55Идентификатор кодека/Подсказка : MP3Продолжительность : 14 м.Вид битрейта : ПостоянныйБитрейт : 128 Кбит/секКаналы : 1 каналЧастота : 44,1 КГцМетод сжатия : С потерямиРазмер потока : 13,7 Мбайт (5%)Выравнивание : Соединение по промежуткамПродолжительность промежутка : 26 мс. (0,65 видеокадр)Время предзагрузки промежутка : 522 мс.

Скриншоты


_________________
Показать сообщения:    

Текущее время: Сегодня 23:48

Часовой пояс: GMT



Вы не можете начинать темы
Вы не можете отвечать на сообщения
Вы не можете редактировать свои сообщения
Вы не можете удалять свои сообщения
Вы не можете голосовать в опросах
Вы не можете прикреплять файлы к сообщениям
Вы не можете скачивать файлы