Важное объявление!
У Нас Все раздачи мультитрекерные, при нуле пиров в релизах, можете смело вставать на закачку!
 
Автор Сообщение

HUNTER

Стаж:
4 года 8 месяцев
Сообщений:
61998

Репутация: 101

[+] [-]
Вне форума [Профиль] [ЛС]

Избави нас от лукавого / Deliver us from evil«You haven't seen true evil»-
Страна: США
Студии: Jerry Bruckheimer Films, LStar Capital, Screen Gems
Жанр: Ужасы, триллер
Год выпуска: 2014-Дата мировой премьеры: 2 июля 2014
Дата российской премьеры: 28 августа 2014, «WDSSPR»
Дата выхода DVD релиза: 15 января 2015, «CP Дистрибуция»-Продолжительность: 01:53:37
Перевод: Профессиональный (дублированный) [лицензия]
Cубтитры: Английские, арабские, хорватские, иврит, венгерские, исландские, литовские, польские, русские, словенские, украинские
Оригинальная аудиодорожка: английская-Режиссер: Скотт Дерриксон / Scott Derrickson
Продюсеры: Джерри Брукхаймер, Пол Харрис Бордман, Гленн С. Гейнор
Актеры: Эрик Бана, Эдгар Рамирес, Оливия Манн, Крис Кой, Дориан Миссик, Шон Харрис, Джоэл МакХэйл, Майк Хьюстон, Лулу Уилсон, Оливия Хортон-Описание:
Полиция Нью-Йорка расследует серию тревожных и необъяснимых преступлений. Один из офицеров обращается за помощью к специалисту по экзорцизму, чтобы избавить город от дьявольской напасти.- -Качество: DVD5
Формат: DVD-Video
Видео: MPEG-2, 720x576@1024x576 (PAL 16:9), ~4593 Кбит/сек
Аудио 1: AC3 5.1, 448 Кбит/сек [Английский - оригинал]
Аудио 2: AC3 5.1, 384 Кбит/сек [Русский - дублированный]

DVDInfo

Title: Deliver Us from Evil (2014) DVD5
Size: 4.36 Gb ( 4 569 356,00 KBytes ) - DVD-5
Enabled regions: 1, 2, 3, 4, 5, 6, 7, 8
VTS_01 :
Play Length: 01:53:37+00:00:00
Video: PAL 16:9 (720x576) VBR, Auto Letterboxed
Audio:
English (Dolby AC3, 6 ch)
Russian (Dolby AC3, 6 ch)
Subtitles:
English
Arabic
Hrvatski
Hebrew
Magyar
Islenska
Lithuanian
Polish
Russian
Slovenian
English
Ukrainian
* Menus Information *
VIDEO_TS Menu
Video:
PAL 4:3 (720x576) VBR
English Language Unit :
Title Menu
VTS_01 Menu
Video:
PAL 16:9 (720x576) VBR
Auto Pan&Scan
Audio:
Not specified (Dolby AC3, 2 ch)
English Language Unit :
Root Menu
Subpicture Menu
Audio Menu
Chapter (PTT) Menu

MediaInfo

Общее
Полное имя : G:\Видео\Deliver Us from Evil (2014) DVD5\VIDEO_TS\VTS_01_1.VOB
Формат : MPEG-PS
Размер файла : 1024 Мбайт
Продолжительность : 25 м.
Режим общего битрейта : Переменный
Общий поток : 5536 Кбит/сек
Видео
Идентификатор : 224 (0xE0)
Формат : MPEG Video
Версия формата : Version 2
Профиль формата : Main@Main
Параметр BVOP формата : Да
Параметр матрицы формата : Выборочная
Параметр GOP формата : Variable
Продолжительность : 25 м.
Вид битрейта : Переменный
Битрейт : 4593 Кбит/сек
Ширина : 720 пикселей
Высота : 576 пикселей
Соотношение сторон : 16:9
Частота кадров : 25,000 кадров/сек
Стандарт вещания : PAL
Цветовое пространство : YUV
Субдискретизация насыщенности : 4:2:0
Битовая глубина : 8 бит
Метод сжатия : С потерями
Бит/(Пиксели*Кадры) : 0.443
Временной код первого кадра : 00:00:00:00
Оригинал временного кода : Group of pictures header
Размер потока : 850 Мбайт (83%)
Аудио #1
Идентификатор : 189 (0xBD)-128 (0x80)
Формат : AC-3
Формат/Информация : Audio Coding 3
Расширение режима : CM (complete main)
Параметр Endianness формата : Big
Режим смешивания : DVD-Video
Продолжительность : 25 м.
Вид битрейта : Постоянный
Битрейт : 448 Кбит/сек
Каналы : 6 каналов
Расположение каналов : Front: L C R, Side: L R, LFE
Частота : 48,0 КГц
Битовая глубина : 16 бит
Метод сжатия : С потерями
Размер потока : 82,9 Мбайт (8%)
Аудио #2
Идентификатор : 189 (0xBD)-131 (0x83)
Формат : AC-3
Формат/Информация : Audio Coding 3
Расширение режима : CM (complete main)
Параметр Endianness формата : Big
Режим смешивания : DVD-Video
Продолжительность : 25 м.
Вид битрейта : Постоянный
Битрейт : 384 Кбит/сек
Каналы : 6 каналов
Расположение каналов : Front: L C R, Side: L R, LFE
Частота : 48,0 КГц
Битовая глубина : 16 бит
Метод сжатия : С потерями
Размер потока : 71,0 Мбайт (7%)
Текст #1
Идентификатор : 189 (0xBD)-43 (0x2B)
Формат : RLE
Формат/Информация : Run-length encoding
Режим смешивания : DVD-Video
Задержка видео : 14 с.
Текст #2
Идентификатор : 189 (0xBD)-42 (0x2A)
Формат : RLE
Формат/Информация : Run-length encoding
Режим смешивания : DVD-Video
Меню

Доп. информация

Исходник: http://rutracker.org/forum/viewtopic.php?t=4942911
Удалены: предупреждающие надписи, доп. материалы, венгерская, польская, украинская и английская (AC3 2.0) звуковая дорожка (в меню кнопки затёрты).
Команды диска переписаны заново, оставлен один VTS.
Видео сжато на 12,2%
Меню: статичное, на русском языке, недействующие кнопки затерты и закрыты.
Обработка и сжатие: DVD ReMake Pro + DVD Rebuilder + CCE SP2 [7 проходов] + Работа с меню (Adobe PhotoShop и MuxMan).
Работоспособность проверена на софтовом и на бытовом плеере.
Скриншот финального проекта:

Лог кодирования DVD Rebuilder
-----------------
[16:59:04] Phase I, PREPARATION started.
- DVD-RB v1.28.2
- AVISYNTH 2.5.8.0
- CCE 1.0.1.9 encoder selected.
- "Adaptive Quantizer Matrices" is enabled.
- Source: DELIVER US FROM EVIL (2014) DVD
- VTS_01: 2 504 574 sectors.
-- Scanning and writing .D2V & .AVS files
-- Processed 170 447 frames.
-- Building .AVS and .ECL files
- Reduction Level for DVD-5: 87,8%
- Overall Bitrate : 4 456Kbs
- Space for Video : 3 708 680KB
- Analyzing VTS_01 for optimal Q factor.
-- TargetSize (sectors):1 882 153
-- Sampling 1716 of 170447 frames.
-- Predicted size (sectors) at Q=23: 876 284
-- Predicted size (sectors) at Q=6: 1 507 604
-- Predicted size (sectors) at Q=4: 1 649 987
-- Predicted size (sectors) at Q=3: 1 739 685
-- Predicted size (sectors) at Q=2: 1 832 278
-- Predicted size (sectors) at Q=1: 1 950 784
- Q Value selected: 2
- Redistributing Final_Q: 2
- HIGH/LOW/TYPICAL Bitrates: 5 779/2 191/4 456 Kbs
[17:20:26] Phase I, PREPARATION completed in 21 minutes.
[17:21:27] Phase II ENCODING started
- Creating M2V for VTS_01 segment 0
- Creating M2V for VTS_01 segment 1
- Creating M2V for VTS_01 segment 2
- Creating M2V for VTS_01 segment 3
- Creating M2V for VTS_01 segment 4
- Extracting Video for VTS_01 segment 5
- Extracting Video for VTS_01 segment 6
- Extracting Video for VTS_01 segment 7
- Creating M2V for VTS_01 segment 8
- Creating M2V for VTS_01 segment 9
- Creating M2V for VTS_01 segment 10
- Creating M2V for VTS_01 segment 11
- Creating M2V for VTS_01 segment 12
- Creating M2V for VTS_01 segment 13
- Creating M2V for VTS_01 segment 14
- Creating M2V for VTS_01 segment 15
- Creating M2V for VTS_01 segment 16
- Extracting Video for VTS_01 segment 17
[18:11:49] Phase II ENCODING completed in 50 minutes.
[18:12:55] Phase III, REBUILD started.
- Copying IFO, BUP, and unaltered files...
- Processing VTS_01
- Reading/processing TMAP table...
- Rebuilding seg 0 VOBID 1 CELLID 1
- Updating NAVPACKS for VOBID_01
- Rebuilding seg 1 VOBID 2 CELLID 1
- Rebuilding seg 2 VOBID 2 CELLID 2
- Rebuilding seg 3 VOBID 2 CELLID 3
- Rebuilding seg 4 VOBID 2 CELLID 4
- Rebuilding seg 5 VOBID 2 CELLID 5
- Rebuilding seg 6 VOBID 2 CELLID 6
- Rebuilding seg 7 VOBID 2 CELLID 7
- Rebuilding seg 8 VOBID 2 CELLID 8
- Rebuilding seg 9 VOBID 2 CELLID 9
- Rebuilding seg 10 VOBID 2 CELLID 10
- Rebuilding seg 11 VOBID 2 CELLID 11
- Rebuilding seg 12 VOBID 2 CELLID 12
- Rebuilding seg 13 VOBID 2 CELLID 13
- Rebuilding seg 14 VOBID 2 CELLID 14
- Rebuilding seg 15 VOBID 2 CELLID 15
- Rebuilding seg 16 VOBID 2 CELLID 16
- Rebuilding seg 17 VOBID 2 CELLID 17
- Updating NAVPACKS for VOBID_02
- Updated VTS_C_ADT.
- Updated VTS_VOBU_ADMAP.
- Updated IFO: VTS_01_0.IFO
- Updating TMAP table...
- Correcting VTS Sectors...
[18:31:17] Phase III, REBUILD completed in 19 minutes.
Done.
-

Скриншоты меню

Скриншоты


_________________
Показать сообщения:    

Текущее время: Сегодня 21:41

Часовой пояс: GMT



Вы не можете начинать темы
Вы не можете отвечать на сообщения
Вы не можете редактировать свои сообщения
Вы не можете удалять свои сообщения
Вы не можете голосовать в опросах
Вы не можете прикреплять файлы к сообщениям
Вы не можете скачивать файлы
Наши партнеры: интернет магазин Ивановского трикотажа textilla.ru