Важное объявление!
У Нас Все раздачи мультитрекерные, при нуле пиров в релизах, можете смело вставать на закачку!
 
Автор Сообщение

HUNTER

Стаж:
4 года 11 месяцев
Сообщений:
66026

Репутация: 101

[+] [-]
Вне форума [Профиль] [ЛС]

Идти своим путем / Иду своим путем / Going My Way
Страна: США
Жанр: мюзикл, драма, комедия, музыка
Год выпуска: 1944
Продолжительность: 02:06:35
Перевод 1: Профессиональный (многоголосый закадровый)
Перевод 2: Профессиональный (двухголосый закадровый)
Перевод 3: Профессиональный (двухголосый закадровый) - П. Гланц и И. Королева
Cубтитры: русские, английские
Оригинальная аудиодорожка: английский
Режиссер: Лео МакКери / Leo McCarey
В ролях: Бинг Кросби, Бэрри Фицджералд, Фрэнк МакХью, Джеймс Браун, Джин Локхарт, Джин Хезер, Портер Холл, Фортунио Бонанова, Эйли Мэлион, Роберт Митчелл Бой Шор
Описание: Отец Фицгиббон, пожилой священник округа. Он отслужил в старом районе города уже 45 лет, но его церковь бедна, плохо отапливается и имеет долги за аренду земли. Для поправки дел прихода к нему направлен молодой священник Чак О'Молли.
Доп. информация:


За многоголоску спасибо Тихиро.
За двухголоску спасибо deis
За Гланца спасибо renege79
За субтитры Гланца спасибо tеko
Сэмпл: http://sendfile.su/1030581
Тип релиза: WEB-DL 720p
Контейнер: MKV
Видео: AVC, 976x720, L3.1, 23.976fps, 3931kbps
Аудио 1: Russian: AC3, 48000Hz, 2ch, 192kbps - MVO
Аудио 2: Russian: AC3, 48000Hz, 2ch, 192kbps - DVO
Аудио 3: Russian: AC3, 48000Hz, 2ch, 160kbps - Гланц
Аудио 4: English: AC3, 48000Hz, 2ch, 192kbps - DVD
Аудио 5: English: AAC, 48000Hz, 2ch, 112kbps - WEB-DL
Формат субтитров: softsub (SRT)

MediaInfo

Общее
Уникальный идентификатор : 218306356668956209930299790668939155797 (0xA43C466232AEEF9BB49AAEDEDF005955)
Полное имя : T:\Going My Way (WEB-DL 720p).mkv
Формат : Matroska
Версия формата : Version 4 / Version 2
Размер файла : 4,23 Гбайт
Продолжительность : 2 ч. 6 м.
Общий поток : 4779 Кбит/сек
Дата кодирования : UTC 2014-10-03 10:31:34
Программа кодирования : mkvmerge v6.9.1 ('Blue Panther') 64bit built on Apr 18 2014 18:23:38
Библиотека кодирования : libebml v1.3.0 + libmatroska v1.4.1
Видео
Идентификатор : 1
Формат : AVC
Формат/Информация : Advanced Video Codec
Профиль формата : High@L3.1
Параметр CABAC формата : Нет
Параметр ReFrames формата : 2 кадра
Идентификатор кодека : V_MPEG4/ISO/AVC
Продолжительность : 2 ч. 6 м.
Ширина : 976 пикселей
Высота : 720 пикселей
Соотношение сторон : 4:3
Режим частоты кадров : Постоянный
Частота кадров : 23,976 кадра/сек
Цветовое пространство : YUV
Субдискретизация насыщенности : 4:2:0
Битовая глубина : 8 бит
Тип развёртки : Прогрессивная
Язык : English
Default : Да
Forced : Нет
Основные цвета : BT.709
Характеристики трансфера : BT.709
Коэффициенты матрицы : BT.709
Аудио #1
Идентификатор : 2
Формат : AC-3
Формат/Информация : Audio Coding 3
Расширение режима : CM (complete main)
Параметр Endianness формата : Big
Идентификатор кодека : A_AC3
Продолжительность : 2 ч. 6 м.
Вид битрейта : Постоянный
Битрейт : 192 Кбит/сек
Каналы : 2 канала
Расположение каналов : Front: L R
Частота : 48,0 КГц
Битовая глубина : 16 бит
Метод сжатия : С потерями
Размер потока : 174 Мбайт (4%)
Заголовок : MVO
Язык : Russian
Default : Да
Forced : Нет
Аудио #2
Идентификатор : 3
Формат : AC-3
Формат/Информация : Audio Coding 3
Расширение режима : CM (complete main)
Параметр Endianness формата : Big
Идентификатор кодека : A_AC3
Продолжительность : 2 ч. 6 м.
Вид битрейта : Постоянный
Битрейт : 192 Кбит/сек
Каналы : 2 канала
Расположение каналов : Front: L R
Частота : 48,0 КГц
Битовая глубина : 16 бит
Метод сжатия : С потерями
Размер потока : 174 Мбайт (4%)
Заголовок : DVO
Язык : Russian
Default : Нет
Forced : Нет
Аудио #3
Идентификатор : 4
Формат : AC-3
Формат/Информация : Audio Coding 3
Расширение режима : CM (complete main)
Параметр Endianness формата : Big
Идентификатор кодека : A_AC3
Продолжительность : 2 ч. 6 м.
Вид битрейта : Постоянный
Битрейт : 160 Кбит/сек
Каналы : 2 канала
Расположение каналов : Front: L R
Частота : 48,0 КГц
Битовая глубина : 16 бит
Метод сжатия : С потерями
Размер потока : 145 Мбайт (3%)
Заголовок : DVO (П. Гланц и И. Королева)
Язык : Russian
Default : Нет
Forced : Нет
Аудио #4
Идентификатор : 5
Формат : AC-3
Формат/Информация : Audio Coding 3
Расширение режима : CM (complete main)
Параметр Endianness формата : Big
Идентификатор кодека : A_AC3
Продолжительность : 2 ч. 6 м.
Вид битрейта : Постоянный
Битрейт : 192 Кбит/сек
Каналы : 2 канала
Расположение каналов : Front: L R
Частота : 48,0 КГц
Битовая глубина : 16 бит
Метод сжатия : С потерями
Размер потока : 174 Мбайт (4%)
Заголовок : DVD
Язык : English
Default : Нет
Forced : Нет
Аудио #5
Идентификатор : 6
Формат : AAC
Формат/Информация : Advanced Audio Codec
Профиль формата : LC
Идентификатор кодека : A_AAC
Продолжительность : 2 ч. 6 м.
Каналы : 2 канала
Расположение каналов : Front: L R
Частота : 48,0 КГц
Метод сжатия : С потерями
Заголовок : WEB-DL
Язык : English
Default : Нет
Forced : Нет
Текст #1
Идентификатор : 7
Формат : UTF-8
Идентификатор кодека : S_TEXT/UTF8
Идентификатор кодека/Информация : UTF-8 Plain Text
Язык : Russian
Default : Нет
Forced : Нет
Текст #2
Идентификатор : 8
Формат : UTF-8
Идентификатор кодека : S_TEXT/UTF8
Идентификатор кодека/Информация : UTF-8 Plain Text
Язык : English
Default : Нет
Forced : Нет
Меню
00:00:00.000 : en:Main Titles
00:01:38.000 : en:Saint Dominic's
00:08:21.000 : en:Off To A Bad Start
00:18:46.000 : en:O'Malley's Secret
00:33:20.000 : en:"The Day After Forever"
00:40:11.000 : en:The Choir Gang
00:49:23.000 : en:Silent Night
00:51:16.000 : en:The Inevitable Truth
01:00:28.000 : en:"Too Ra Loo Ra Loo Ral"
01:06:06.000 : en:Jenny!
01:10:45.000 : en:"Habanera" (from CARMEN Suite No. 2)
01:19:49.000 : en:"Going My Way"
01:25:40.000 : en:"Ave Maria"
01:30:47.000 : en:Ted & Carol
01:42:40.000 : en:"Swinging On A Star"
01:45:24.000 : en:The Collection
01:53:22.000 : en:Tragedy
02:04:40.000 : en:A Happy Ending

Скриншоты


_________________
Показать сообщения:    

Текущее время: Сегодня 15:56

Часовой пояс: GMT



Вы не можете начинать темы
Вы не можете отвечать на сообщения
Вы не можете редактировать свои сообщения
Вы не можете удалять свои сообщения
Вы не можете голосовать в опросах
Вы не можете прикреплять файлы к сообщениям
Вы не можете скачивать файлы