Ивановский Торрент трекер
Яндекс.Погода
Статистика раздачи
Размер:  15.21 GB   |    Зарегистрирован:  1 год 11 месяцев   |    Скачан:  0 раз

Полного источника не было: Никогда

 
     
 
 
 

[Цитировать]
HUNTER

Идентификация / Identity
Страна: США
Жанр: триллер, детектив
Год выпуска: 2003
Продолжительность: 01:30:02-Перевод 1: Профессиональный (двухголосый закадровый) Видеосервис
Перевод 2: Профессиональный (многоголосый закадровый) BD CEE
Перевод 3: Профессиональный (многоголосый закадровый) ОРТ
Перевод 4: Профессиональный (двухголосый закадровый)
Перевод 5: Авторский (одноголосый закадровый) А. Гаврилов
Перевод 6: Одноголосый закадровый Д.Есарев
Перевод 7: Авторский (одноголосый закадровый) Ю. Живов
Cубтитры: русские, английскиe
Оригинальная аудиодорожка: английский-Режиссер: Джеймс Мэнголд / James Mangold-В ролях: Джон Кьюсак, Рэй Лиотта, Аманда Пит, Джон Хоукс, Альфред Молина, Клеа ДюВалл, Джон К. МакГинли, Уильям Ли Скотт, Джейк Бьюзи, Прюитт Тэйлор Винс
Описание: Бушует жуткий ливень. В поисках укрытия десять путешественников вынуждены остановиться на ночь в старом придорожном мотеле. Однако вскоре они с ужасом обнаруживают, что это место становится не спасительным укрытием, а смертельной мышеловкой.
Люди гибнут один за другим, а убийца, скрывающийся среди них, по-прежнему не вычислен. С каждым новым трупом оставшимся в живых становится все очевиднее, что их всех вместе собрала далеко не судьба, а чья-то дьявольски изощренная воля, творящая собственное правосудие.-Рип от Toshik®-Тип релиза: BDRip 1080p
Контейнер: MKV-Видео: 1918x796 (2,40:1), 23,976 fps, MPEG-4 AVC, ~ 16500 kbps-Аудио 1: Russian: 48 kHz/16-bit, DTS, 3/2 (L,C,R,l,r) + LFE ch, ~1510.00 kbps avg | Видеосервис
Аудио 2: Russian: 48 kHz, AC3, 3/2 (L,C,R,l,r) + LFE ch, ~640.00 kbps avg | BD CEE
Аудио 3: Russian: 48 kHz, AC3, 2/0 (L,R) ch, ~192.00 kbps avg | ОРТ
Аудио 4: Russian: 48 kHz, AC3, 3/2 (L,C,R,l,r) + LFE ch, ~384.00 kbps avg | DVO
Аудио 5: Russian: 48 kHz, AC3, 2/0 (L,R) ch, ~192.00 kbps avg | А. Гаврилов
Аудио 6: Russian: 48 kHz/16-bit, DTS, 3/2 (L,C,R,l,r) + LFE ch, ~1510.00 kbps avg | Д.Есарев
Аудио 7: Russian: 48 kHz/16-bit, DTS, 3/2 (L,C,R,l,r) + LFE ch, ~1510.00 kbps avg | Ю. Живов
Аудио 8: Ukrainian: 48 kHz, AC3, 2/0 (L,R) ch, ~192.00 kbps avg | MVO 1+1
Аудио 9: English: 48 kHz/16-bit, DTS, 3/2 (L,C,R,l,r) + LFE ch, ~1510.00 kbps avg

Дополнительно

Цитата:
Релиз HDCLUB
Дорожка № 1, 6 и 7 получены наложением выделенного\чистого голоса центр декодированного оригинала.
Перевод Дмитрия Есарева доступен благодаря Pr0peLLer. Спасибо!

MediaInfo

Общее
Уникальный идентификатор : 235594967486039938082066424701518875821 (0xB13DF0B51099278E94F0D6070DA00CAD)
Полное имя : D:\Identity.2003.1080p.Toshik.mkv
Формат : Matroska
Версия формата : Version 2
Размер файла : 15,2 Гбайт
Продолжительность : 1 ч. 30 м.
Общий поток : 24,2 Мбит/сек
Название фильма : Идентификация / Identity (2003) 1080p BDRip
Дата кодирования : UTC 2015-12-17 09:45:20
Программа кодирования : mkvmerge v8.2.0 ('World of Adventure') 64bit
Библиотека кодирования : libebml v1.3.1 + libmatroska v1.4.2
DURATION : 01:26:03.589000000
NUMBER_OF_FRAMES : 913
NUMBER_OF_BYTES : 57785
_STATISTICS_WRITING_APP : mkvmerge v8.2.0 ('World of Adventure') 64bit
_STATISTICS_WRITING_DATE_UTC : 2015-12-17 09:45:20
_STATISTICS_TAGS : BPS DURATION NUMBER_OF_FRAMES NUMBER_OF_BYTES
Видео
Идентификатор : 1
Формат : AVC
Формат/Информация : Advanced Video Codec
Профиль формата : High@L4.1
Параметр CABAC формата : Да
Параметр ReFrames формата : 5 кадров
Идентификатор кодека : V_MPEG4/ISO/AVC
Продолжительность : 1 ч. 30 м.
Битрейт : 16,1 Мбит/сек
Ширина : 1918 пикселей
Высота : 796 пикселей
Соотношение сторон : 2,40:1
Режим частоты кадров : Постоянный
Частота кадров : 23,976 кадра/сек
Цветовое пространство : YUV
Субдискретизация насыщенности : 4:2:0
Битовая глубина : 8 бит
Тип развёртки : Прогрессивная
Бит/(Пиксели*Кадры) : 0.439
Размер потока : 10,1 Гбайт (66%)
Заголовок : Rip by Toshik®
Библиотека кодирования : x264 core 148 r2638+53 bb29004 t_mod_Custom [8-bit@all X86_64]
Настройки программы : cabac=1 / ref=5 / deblock=1:-3:-3 / analyse=0x3:0x133 / me=esa / subme=11 / psy=1 / fade_compensate=0.00 / psy_rd=1.03:0.00 / mixed_ref=1 / me_range=32 / chroma_me=1 / trellis=2 / 8x8dct=1 / cqm=0 / deadzone=21,11 / fast_pskip=0 / chroma_qp_offset=-2 / threads=12 / lookahead_threads=3 / sliced_threads=0 / nr=0 / decimate=1 / interlaced=0 / bluray_compat=0 / constrained_intra=0 / fgo=0 / bframes=10 / b_pyramid=2 / b_adapt=2 / b_bias=0 / direct=3 / weightb=1 / open_gop=0 / weightp=2 / keyint=240 / keyint_min=23 / scenecut=40 / intra_refresh=0 / rc=crf / mbtree=0 / crf=16.5000 / qcomp=0.65 / qpmin=0:0:0 / qpmax=69:69:69 / qpstep=4 / ip_ratio=1.35 / pb_ratio=1.25 / aq=1:0.85 / aq-sensitivity=10.00 / aq-factor=1.00:1.00:1.00 / aq2=0 / aq3=0
Язык : English
Default : Да
Forced : Нет
DURATION : 01:30:02.397000000
NUMBER_OF_FRAMES : 129528
NUMBER_OF_BYTES : 11169606460
_STATISTICS_WRITING_APP : mkvmerge v8.2.0 ('World of Adventure') 64bit
_STATISTICS_WRITING_DATE_UTC : 2015-12-17 09:45:20
_STATISTICS_TAGS : BPS DURATION NUMBER_OF_FRAMES NUMBER_OF_BYTES
Аудио #1
Идентификатор : 2
Формат : DTS
Формат/Информация : Digital Theater Systems
Режим : 16
Параметр Endianness формата : Big
Идентификатор кодека : A_DTS
Продолжительность : 1 ч. 30 м.
Вид битрейта : Постоянный
Битрейт : 1509 Кбит/сек
Каналы : 6 каналов
Расположение каналов : Front: L C R, Side: L R, LFE
Частота : 48,0 КГц
Битовая глубина : 24 бит
Метод сжатия : С потерями
Размер потока : 972 Мбайт (6%)
Заголовок : DVO, Видеосервис
Язык : Russian
Default : Да
Forced : Нет
Аудио #2
Идентификатор : 3
Формат : AC-3
Формат/Информация : Audio Coding 3
Расширение режима : CM (complete main)
Параметр Endianness формата : Big
Идентификатор кодека : A_AC3
Продолжительность : 1 ч. 30 м.
Вид битрейта : Постоянный
Битрейт : 640 Кбит/сек
Каналы : 6 каналов
Расположение каналов : Front: L C R, Side: L R, LFE
Частота : 48,0 КГц
Битовая глубина : 16 бит
Метод сжатия : С потерями
Размер потока : 412 Мбайт (3%)
Заголовок : MVO,BD CEE
Язык : Russian
Default : Нет
Forced : Нет
Аудио #3
Идентификатор : 4
Формат : AC-3
Формат/Информация : Audio Coding 3
Расширение режима : CM (complete main)
Параметр Endianness формата : Big
Идентификатор кодека : A_AC3
Продолжительность : 1 ч. 30 м.
Вид битрейта : Постоянный
Битрейт : 192 Кбит/сек
Каналы : 2 канала
Расположение каналов : Front: L R
Частота : 48,0 КГц
Битовая глубина : 16 бит
Метод сжатия : С потерями
Размер потока : 124 Мбайт (1%)
Заголовок : MVO, ОРТ
Язык : Russian
Default : Нет
Forced : Нет
Аудио #4
Идентификатор : 5
Формат : AC-3
Формат/Информация : Audio Coding 3
Расширение режима : CM (complete main)
Параметр Endianness формата : Big
Идентификатор кодека : A_AC3
Продолжительность : 1 ч. 30 м.
Вид битрейта : Постоянный
Битрейт : 384 Кбит/сек
Каналы : 6 каналов
Расположение каналов : Front: L C R, Side: L R, LFE
Частота : 48,0 КГц
Битовая глубина : 16 бит
Метод сжатия : С потерями
Размер потока : 247 Мбайт (2%)
Заголовок : DVO
Язык : Russian
Default : Нет
Forced : Нет
Аудио #5
Идентификатор : 6
Формат : AC-3
Формат/Информация : Audio Coding 3
Расширение режима : CM (complete main)
Параметр Endianness формата : Big
Идентификатор кодека : A_AC3
Продолжительность : 1 ч. 30 м.
Вид битрейта : Постоянный
Битрейт : 192 Кбит/сек
Каналы : 2 канала
Расположение каналов : Front: L R
Частота : 48,0 КГц
Битовая глубина : 16 бит
Метод сжатия : С потерями
Размер потока : 124 Мбайт (1%)
Заголовок : AVO, Гаврилов
Язык : Russian
Default : Нет
Forced : Нет
Аудио #6
Идентификатор : 7
Формат : DTS
Формат/Информация : Digital Theater Systems
Режим : 16
Параметр Endianness формата : Big
Идентификатор кодека : A_DTS
Продолжительность : 1 ч. 30 м.
Вид битрейта : Постоянный
Битрейт : 1509 Кбит/сек
Каналы : 6 каналов
Расположение каналов : Front: L C R, Side: L R, LFE
Частота : 48,0 КГц
Битовая глубина : 24 бит
Метод сжатия : С потерями
Размер потока : 972 Мбайт (6%)
Заголовок : VO, Есарев
Язык : Russian
Default : Нет
Forced : Нет
Аудио #7
Идентификатор : 8
Формат : DTS
Формат/Информация : Digital Theater Systems
Режим : 16
Параметр Endianness формата : Big
Идентификатор кодека : A_DTS
Продолжительность : 1 ч. 30 м.
Вид битрейта : Постоянный
Битрейт : 1509 Кбит/сек
Каналы : 6 каналов
Расположение каналов : Front: L C R, Side: L R, LFE
Частота : 48,0 КГц
Битовая глубина : 24 бит
Метод сжатия : С потерями
Размер потока : 972 Мбайт (6%)
Заголовок : AVO, Живов
Язык : Russian
Default : Нет
Forced : Нет
Аудио #8
Идентификатор : 9
Формат : AC-3
Формат/Информация : Audio Coding 3
Расширение режима : CM (complete main)
Параметр Endianness формата : Big
Идентификатор кодека : A_AC3
Продолжительность : 1 ч. 30 м.
Вид битрейта : Постоянный
Битрейт : 192 Кбит/сек
Каналы : 2 канала
Расположение каналов : Front: L R
Частота : 48,0 КГц
Битовая глубина : 16 бит
Метод сжатия : С потерями
Размер потока : 124 Мбайт (1%)
Заголовок : MVO, 1+1
Язык : Ukrainian
Default : Нет
Forced : Нет
Аудио #9
Идентификатор : 10
Формат : DTS
Формат/Информация : Digital Theater Systems
Режим : 16
Параметр Endianness формата : Big
Идентификатор кодека : A_DTS
Продолжительность : 1 ч. 30 м.
Вид битрейта : Постоянный
Битрейт : 1509 Кбит/сек
Каналы : 6 каналов
Расположение каналов : Front: L C R, Side: L R, LFE
Частота : 48,0 КГц
Битовая глубина : 24 бит
Метод сжатия : С потерями
Размер потока : 972 Мбайт (6%)
Язык : English
Default : Нет
Forced : Нет
Текст #1
Идентификатор : 11
Формат : UTF-8
Идентификатор кодека : S_TEXT/UTF8
Идентификатор кодека/Информация : UTF-8 Plain Text
Язык : Russian
Default : Да
Forced : Нет
Текст #2
Идентификатор : 12
Формат : UTF-8
Идентификатор кодека : S_TEXT/UTF8
Идентификатор кодека/Информация : UTF-8 Plain Text
Язык : English
Default : Нет
Forced : Нет
Меню
00:00:00.000 : en:Start
00:04:36.567 : en:"We had an accident"
00:12:51.979 : en:All roads lead to Paris
00:17:15.617 : en:Caroline Suzanne, actress
00:25:23.730 : en:Ginny & Lou, Newlyweds
00:33:05.733 : en:Officer Rhodes
00:37:57.274 : en:A stitch in time
00:40:51.782 : en:Robert Maine, convicted killer
00:44:36.423 : en:Canceled TV star
00:50:37.909 : en:"We can't find the body"
00:55:28.700 : en:"I'm not pregnant
01:01:29.310 : en:Marriage annulled
01:07:18.242 : en:Caught
01:09:35.254 : en:Larry the guard
01:15:05.083 : en:Awake
01:19:23.633 : en:A burned out ex-cop

Скриншоты

[iv-torrents.ru].t53272.torrent
Торрент: Зарегистрирован [ 2016-01-14 17:21 ] · 5E54BEA8C8E98656868DE668ECE32A81CCCC3DA5

Скачать .torrent

Скачать

77 KB

Статус: проверено
Скачан: 0 раз
Размер: 15.21 GB
terms.php
Похожие темы


Показать сообщения:    

Текущее время: 16-Дек 13:15

Часовой пояс: UTC ± 0


Вы не можете начинать темы
Вы не можете отвечать на сообщения
Вы не можете редактировать свои сообщения
Вы не можете удалять свои сообщения
Вы не можете голосовать в опросах
Вы не можете прикреплять файлы к сообщениям
Вы можете скачивать файлы

!ВНИМАНИЕ!
Сайт не предоставляет электронные версии произведений, а занимается лишь коллекционированием и каталогизацией ссылок, присылаемых и публикуемых на форуме нашими читателями. Если вы являетесь правообладателем какого-либо представленного материала и не желаете, чтобы ссылка на него находилась в нашем каталоге, свяжитесь с нами, и мы незамедлительно удалим ее. Файлы для обмена на трекере предоставлены пользователями сайта, и администрация не несет ответственности за их содержание. Просьба не заливать файлы, защищенные авторскими правами, а также файлы нелегального содержания!