Ивановский Торрент трекер
Яндекс.Погода
Статистика раздачи
Размер:  4.1 GB   |    Зарегистрирован:  1 год 8 месяцев   |    Скачан:  0 раз

Полного источника не было: Никогда

 
     
 
 
 

[Цитировать]
HUNTER

Идеал / Идеально / Perfect
-Страна: США
Жанр: мелодрама
Год выпуска: 1985
Продолжительность: 02:00:01-Перевод 1: Профессиональный (многоголосый, закадровый) Петербург 5 Канал
Перевод 2: Профессиональный (многоголосый, закадровый) 1 Канал
Перевод 3: Профессиональный (многоголосый, закадровый) 6 канал (со вставками 1 канала)
Cубтитры: английские
Оригинальная аудиодорожка: английский-Режиссер: Джеймс Бриджес / James Bridges-В ролях: Джейми Ли Кертис, Раме Эллис, Альма Белтран, Перла Уолтер, Джина Морелли, Джон Траволта, Джон Напьерала, Стефан Гираш, Джэнн Уэннер, Энн Де Сальво, Филип Дельгранде-Описание:
Бывшая олимпийская чемпионка по плаванию, которой в свое время сильно досталось от журналистов, работает инструктором по аэробике. За ней ухаживает журналист, он должен доказать, что достоин ее любви.-Сэмпл: Скачать-Тип релиза: WEB-DL 720p
Контейнер: MKV-Видео: 1280x720 (16:9); 3 897 Kbps; 23.976 fps; 0.176 bpp
Аудио 1: Russian; AC3; 48.0 KHz; 2ch; 192 Kbps MVO 5 канал
Аудио 2: Russian; AC3; 48.0 KHz; 2ch; 192 Kbps MVO 1 канал
Аудио 3: Russian; AC3; 48.0 KHz; 2ch; 192 Kbps MVO 6 канал
Аудио 4: English; AAC; 48.0 KHz; 2ch; ~160 Kbps

MediaInfo

Format : Matroska
Format version : Version 4 / Version 2
File size : 4.10 GiB
Duration : 2h 0mn
Overall bit rate : 4 896 Kbps
Encoded date : UTC 2016-02-04 10:54:59
Writing application : mkvmerge v8.3.0 ('Over the Horizon') 64bit
Writing library : libebml v1.3.1 + libmatroska v1.4.2
Attachements : poster.jpg
DURATION : 02:00:01.664000000
NUMBER_OF_FRAMES : 225052
NUMBER_OF_BYTES : 172839936
_STATISTICS_WRITING_APP : mkvmerge v8.3.0 ('Over the Horizon') 64bit
_STATISTICS_WRITING_DATE_UT : 2016-02-04 10:54:59
_STATISTICS_TAGS : BPS DURATION NUMBER_OF_FRAMES NUMBER_OF_BYTES
Video
ID : 1
Format : AVC
Format/Info : Advanced Video Codec
Format profile : High@L3.1
Format settings, CABAC : No
Format settings, ReFrames : 2 frames
Codec ID : V_MPEG4/ISO/AVC
Duration : 2h 0mn
Width : 1 280 pixels
Height : 720 pixels
Display aspect ratio : 16:9
Frame rate mode : Constant
Frame rate : 23.976 fps
Color space : YUV
Chroma subsampling : 4:2:0
Bit depth : 8 bits
Scan type : Progressive
Language : English
Default : Yes
Forced : No
Color range : Limited
Color primaries : BT.709
Transfer characteristics : BT.709
Matrix coefficients : BT.709
Audio #1
ID : 2
Format : AC-3
Format/Info : Audio Coding 3
Mode extension : CM (complete main)
Format settings, Endianness : Big
Codec ID : A_AC3
Duration : 2h 0mn
Bit rate mode : Constant
Bit rate : 192 Kbps
Channel(s) : 2 channels
Channel positions : Front: L R
Sampling rate : 48.0 KHz
Compression mode : Lossy
Stream size : 165 MiB (4%)
Title : MVO 5 Канал
Language : Russian
Default : Yes
Forced : No
Audio #2
ID : 3
Format : AC-3
Format/Info : Audio Coding 3
Mode extension : CM (complete main)
Format settings, Endianness : Big
Codec ID : A_AC3
Duration : 2h 0mn
Bit rate mode : Constant
Bit rate : 192 Kbps
Channel(s) : 2 channels
Channel positions : Front: L R
Sampling rate : 48.0 KHz
Compression mode : Lossy
Stream size : 165 MiB (4%)
Title : MVO 1 Канал
Language : Russian
Default : No
Forced : No
Audio #3
ID : 4
Format : AC-3
Format/Info : Audio Coding 3
Mode extension : CM (complete main)
Format settings, Endianness : Big
Codec ID : A_AC3
Duration : 2h 0mn
Bit rate mode : Constant
Bit rate : 192 Kbps
Channel(s) : 2 channels
Channel positions : Front: L R
Sampling rate : 48.0 KHz
Compression mode : Lossy
Stream size : 165 MiB (4%)
Title : MVO 6 Канал
Language : Russian
Default : No
Forced : No
Audio #4
ID : 5
Format : AAC
Format/Info : Advanced Audio Codec
Format profile : LC
Codec ID : A_AAC
Duration : 2h 0mn
Channel(s) : 2 channels
Channel positions : Front: L R
Sampling rate : 48.0 KHz
Compression mode : Lossy
Language : English
Default : No
Forced : No
Text
ID : 6
Format : UTF-8
Codec ID : S_TEXT/UTF8
Codec ID/Info : UTF-8 Plain Text
Title : CC
Language : English
Default : No
Forced : No
Menu
00:00:00.000 : en:Start
00:06:47.000 : en:Health Club idea
00:08:44.000 : en:Interview request
00:10:51.000 : en:The Sports Connection
00:12:48.000 : en:Coed gym
00:14:55.000 : en:Aerobics Pied Piper
00:17:50.000 : en:"All Systems Go"
00:21:44.000 : en:Off-the-record lunch
00:26:36.000 : en:"Hot Hips"
00:28:32.000 : en:A confession to make
00:35:09.000 : en:The McKenzie story
00:38:15.000 : en:The lawyers
00:40:57.000 : en:"Shock Me"
00:48:00.000 : en:Once bitten?
00:51:43.000 : en:Career goals
00:54:57.000 : en:George Hathaway
01:01:20.000 : en:"Wear Out the Grooves"
01:05:50.000 : en:Sally's birthday party
01:14:43.000 : en:"You're not in my article."
01:17:52.000 : en:"Masquerade"
01:21:23.000 : en:LOOKING FOR MR. GOODBODY
01:29:05.000 : en:LOOKING FOR MR. EMERSON
01:32:34.000 : en:"Look what I found."
01:33:15.000 : en:"Talking to the Wall"
01:38:51.000 : en:"I didn't write it."
01:41:05.000 : en:Adam goes bats
01:45:44.000 : en:Contempt of court
01:51:41.000 : en:The verdict

Скриншоты

[iv-torrents.ru].t55656.torrent
Торрент: Зарегистрирован [ 2016-03-29 10:00 ] · 2195CE42B5890ECD6B6C25565844F033FCBAAF47

Скачать .torrent

Скачать

21 KB

Статус: проверено
Скачан: 0 раз
Размер: 4.1 GB
terms.php


Показать сообщения:    

Текущее время: 13-Дек 22:50

Часовой пояс: UTC ± 0


Вы не можете начинать темы
Вы не можете отвечать на сообщения
Вы не можете редактировать свои сообщения
Вы не можете удалять свои сообщения
Вы не можете голосовать в опросах
Вы не можете прикреплять файлы к сообщениям
Вы можете скачивать файлы

!ВНИМАНИЕ!
Сайт не предоставляет электронные версии произведений, а занимается лишь коллекционированием и каталогизацией ссылок, присылаемых и публикуемых на форуме нашими читателями. Если вы являетесь правообладателем какого-либо представленного материала и не желаете, чтобы ссылка на него находилась в нашем каталоге, свяжитесь с нами, и мы незамедлительно удалим ее. Файлы для обмена на трекере предоставлены пользователями сайта, и администрация не несет ответственности за их содержание. Просьба не заливать файлы, защищенные авторскими правами, а также файлы нелегального содержания!