Ивановский Торрент трекер
Яндекс.Погода
 

[Цитировать]
HUNTER

Идеальный муж / An Ideal Husband
Страна: Великобритания, США
Жанр: мелодрама, комедия
Год выпуска: 1999
Продолжительность: 01:37:47
Перевод: Профессиональный (многоголосый закадровый) | R5
Cубтитры: русские, английские
Оригинальная аудиодорожка: английский
Режиссер: Оливер Паркер / Oliver Parker
Сценарий: Оливер Паркер, Оскар Уайльд
В ролях: Кейт Бланшетт, Минни Драйвер, Руперт Эверетт, Джулианна Мур, Джереми Нортэм, Питер Вон, Бен Пуллен, Марша Фитцалан, Линдси Дункан, Невилл Филлипс
Описание: Что может угрожать прекрасному будущему? Только ужасное прошлое. Депутат Британского парламента сэр Роберт Чилтерн известен своей честностью и неподкупностью. Под стать ему и его супруга — леди Чилтрен, являющая собой пример высокой нравственности. Однако прошлое сэра Роберта не совсем безупречно
Леди Лаура Чивли, располагающая доказательствами его давнего неэтичного поступка, пытается шантажировать Роберта. Под угрозой оказываются репутация и карьера Чилтерна. Более того, счастливый брак и любовь жены тоже могут быть утеряны. Но на помощь приходит лучший друг — лорд Горинг, который предпринимает ответные действия против шантажистки...
Оскар Уайльд — истинный знаток великосветских интриг времен расцвета Британской Империи. Его классическая пьеса и сегодня не потеряла своей прелести, а звездный актерский ансамбль только добавляет ей свежести и остроты

Исходник: An Ideal Husband 1999 1080p GER Blu-ray AVC DTS-HD MA 5.1-PCH @ HDBits
Тип релиза: BDRemux 1080p | sample
Контейнер: MKV
Видео: MPEG-4 AVC Video / 36932 kbps / 1080p / 24 fps / 16:9 / High Profile 4.1
Аудио #1: Russian AC3 6ch 48kHz 384Kbps | MVO R5
Аудио #2: English DTS-HD MA / 3397 kbps / 5.1 / 48 kHz / 3397 kbps / 24-bit (DTS Core: 5.1 / 48 kHz / 1509 kbps / 24-bit) | Original
Формат субтитров: softsub (SRT)
Главы: есть

Дополнительно

Дорога перетянута с R5, ибо в дтсхд дороге с хдтрекера - сочное, звонкое эхо, т.к. криво выделили голоса

MediaInfo

General
Complete name : C:\...\An.Ideal.Husband.1999.1080p.Remux.AVC.Rus.Eng-E76.mkv
Format : Matroska
Format version : Version 2
File size : 27.7 GiB
Duration : 1h 37mn
Overall bit rate mode : Variable
Overall bit rate : 40.6 Mbps
Movie name : An.Ideal.Husband.1999.1080p.Remux.AVC.Rus.Eng-E76
Encoded date : UTC 2014-07-05 09:37:24
Writing application : mkvmerge v7.0.0 ('Where We Going') 64bit built on Jun 9 2014 15:16:27
Writing library : libebml v1.3.0 + libmatroska v1.4.1
Video
ID : 1
Format : AVC
Format/Info : Advanced Video Codec
Format profile : High@L4.1
Format settings, CABAC : Yes
Format settings, ReFrames : 4 frames
Codec ID : V_MPEG4/ISO/AVC
Duration : 1h 37mn
Bit rate mode : Variable
Bit rate : 38.0 Mbps
Width : 1 920 pixels
Height : 1 080 pixels
Display aspect ratio : 16:9
Frame rate mode : Constant
Frame rate : 24.000 fps
Color space : YUV
Chroma subsampling : 4:2:0
Bit depth : 8 bits
Scan type : Progressive
Bits/(Pixel*Frame) : 0.764
Stream size : 25.9 GiB (93%)
Title : An Ideal Husband (1999)
Language : English
Default : Yes
Forced : No
Audio #1
ID : 2
Format : AC-3
Format/Info : Audio Coding 3
Mode extension : CM (complete main)
Format settings, Endianness : Big
Codec ID : A_AC3
Duration : 1h 37mn
Bit rate mode : Constant
Bit rate : 384 Kbps
Channel(s) : 6 channels
Channel positions : Front: L C R, Side: L R, LFE
Sampling rate : 48.0 KHz
Bit depth : 16 bits
Compression mode : Lossy
Stream size : 269 MiB (1%)
Title : MVO R5
Language : Russian
Default : Yes
Forced : No
Audio #2
ID : 3
Format : DTS
Format/Info : Digital Theater Systems
Format profile : MA / Core
Codec ID : A_DTS
Duration : 1h 37mn
Bit rate mode : Variable
Bit rate : 1 561 Kbps / 1 510 Kbps
Channel(s) : 6 channels
Channel positions : Front: L C R, Side: L R, LFE
Sampling rate : 48.0 KHz
Bit depth : 24 bits
Compression mode : Lossless / Lossy
Title : Original
Language : English
Default : No
Forced : No
Text #1
ID : 4
Format : UTF-8
Codec ID : S_TEXT/UTF8
Codec ID/Info : UTF-8 Plain Text
Title : R5
Language : Russian
Default : No
Forced : No
Text #2
ID : 5
Format : UTF-8
Codec ID : S_TEXT/UTF8
Codec ID/Info : UTF-8 Plain Text
Title : DVD
Language : English
Default : No
Forced : No
Menu
00:00:00.000 : en:00:00:00.000
00:02:32.042 : en:00:02:32.042
00:05:24.750 : en:00:05:24.750
00:10:34.417 : en:00:10:34.417
00:17:53.542 : en:00:17:53.542
00:26:50.792 : en:00:26:50.792
00:33:11.375 : en:00:33:11.375
00:37:36.250 : en:00:37:36.250
00:44:12.833 : en:00:44:12.833
00:53:48.500 : en:00:53:48.500
01:01:56.667 : en:01:01:56.667
01:12:46.500 : en:01:12:46.500
01:19:36.375 : en:01:19:36.375
01:32:03.958 : en:01:32:03.958
01:33:02.708 : en:01:33:02.708

Скриншоты



Показать сообщения:    

Текущее время: 21-Сен 16:50

Часовой пояс: UTC - 1


Вы не можете начинать темы
Вы не можете отвечать на сообщения
Вы не можете редактировать свои сообщения
Вы не можете удалять свои сообщения
Вы не можете голосовать в опросах
Вы не можете прикреплять файлы к сообщениям
Вы не можете скачивать файлы

!ВНИМАНИЕ!
Сайт не предоставляет электронные версии произведений, а занимается лишь коллекционированием и каталогизацией ссылок, присылаемых и публикуемых на форуме нашими читателями. Если вы являетесь правообладателем какого-либо представленного материала и не желаете, чтобы ссылка на него находилась в нашем каталоге, свяжитесь с нами, и мы незамедлительно удалим ее. Файлы для обмена на трекере предоставлены пользователями сайта, и администрация не несет ответственности за их содержание. Просьба не заливать файлы, защищенные авторскими правами, а также файлы нелегального содержания!