Важное объявление!
У Нас Все раздачи мультитрекерные, при нуле пиров в релизах, можете смело вставать на закачку!
Статистика раздачи
Размер:     |    Зарегистрирован:     |    Скачан:     |   
Нет
 
     
 
 
Автор Сообщение

HUNTER

Стаж:
5 лет
Сообщений:
67958

Репутация: 101

[+] [-]
Вне форума [Профиль] [ЛС]

Идеальный муж / An Ideal Husband
Страна: Великобритания, США
Жанр: мелодрама, комедия
Год выпуска: 1999
Продолжительность: 01:37:47
Перевод: Профессиональный (многоголосый закадровый) | R5
Cубтитры: русские, английские
Оригинальная аудиодорожка: английский
Режиссер: Оливер Паркер / Oliver Parker
Сценарий: Оливер Паркер, Оскар Уайльд
В ролях: Кейт Бланшетт, Минни Драйвер, Руперт Эверетт, Джулианна Мур, Джереми Нортэм, Питер Вон, Бен Пуллен, Марша Фитцалан, Линдси Дункан, Невилл Филлипс
Описание: Что может угрожать прекрасному будущему? Только ужасное прошлое. Депутат Британского парламента сэр Роберт Чилтерн известен своей честностью и неподкупностью. Под стать ему и его супруга — леди Чилтрен, являющая собой пример высокой нравственности. Однако прошлое сэра Роберта не совсем безупречно
Леди Лаура Чивли, располагающая доказательствами его давнего неэтичного поступка, пытается шантажировать Роберта. Под угрозой оказываются репутация и карьера Чилтерна. Более того, счастливый брак и любовь жены тоже могут быть утеряны. Но на помощь приходит лучший друг — лорд Горинг, который предпринимает ответные действия против шантажистки...
Оскар Уайльд — истинный знаток великосветских интриг времен расцвета Британской Империи. Его классическая пьеса и сегодня не потеряла своей прелести, а звездный актерский ансамбль только добавляет ей свежести и остроты

Тип релиза: BDRip 720p (от TayTO) | sample
Контейнер: MKV
Видео кодек: x264
Видео: AVC 1280x692 (1.85:1), 24 fps, ~7550 Kbps, 0.36 bit/pixel
Аудио #1: Russian AC3 6ch 48kHz 384Kbps | MVO R5
Аудио #2: English DTS 6ch 48kHz 1510Kbps | Original
Формат субтитров: softsub (SRT)
Главы: есть

Дополнительно

Дорога перетянута с R5, ибо в дтсхд дороге с хдтрекера - сочное, звонкое эхо, т.к. криво выделили голоса

MediaInfo | x264

x264
x264 iNFO
x264 [info]: frame I:1030 Avg QP:15.17 size:113838
x264 [info]: frame P:25699 Avg QP:16.13 size: 58141
x264 [info]: frame B:114091 Avg QP:17.70 size: 34402
x264 [info]: consecutive B-frames: 1.3% 1.4% 4.8% 8.6% 11.3% 49.7% 7.5% 4.8% 3.0% 3.2% 2.4% 2.0%
encoded 140820 frames, 3.60 fps, 7548.59 kb/s, duration 10:52:06.71
General
Complete name : E:\...\An.Ideal.Husband.1999.720p.BluRay.x264.Rus.Eng-TayTO.mkv
Format : Matroska
Format version : Version 2
File size : 6.45 GiB
Duration : 1h 37mn
Overall bit rate : 9 444 Kbps
Movie name : An.Ideal.Husband.1999.720p.BluRay.x264.Rus.Eng-TayTO
Encoded date : UTC 2014-07-04 14:32:19
Writing application : mkvmerge v7.0.0 ('Where We Going') 64bit built on Jun 9 2014 15:16:27
Writing library : libebml v1.3.0 + libmatroska v1.4.1
Video
ID : 1
Format : AVC
Format/Info : Advanced Video Codec
Format profile : High@L4.1
Format settings, CABAC : Yes
Format settings, ReFrames : 9 frames
Codec ID : V_MPEG4/ISO/AVC
Bit rate : 7 362 Kbps
Width : 1 280 pixels
Height : 692 pixels
Display aspect ratio : 1.85:1
Frame rate mode : Variable
Original frame rate : 24.000 fps
Color space : YUV
Chroma subsampling : 4:2:0
Bit depth : 8 bits
Scan type : Progressive
Title : An Ideal Husband (1999)
Writing library : x264 core 142 r2431kMod ac76440
Encoding settings : cabac=1 / ref=9 / deblock=1:-3:-3 / analyse=0x3:0x133 / me=tesa / subme=11 / psy=1 / fade_compensate=0.00 / psy_rd=1.10:0.00 / mixed_ref=1 / me_range=24 / chroma_me=1 / trellis=2 / 8x8dct=1 / cqm=0 / deadzone=21,11 / fast_pskip=0 / chroma_qp_offset=-2 / threads=12 / lookahead_threads=3 / sliced_threads=0 / nr=0 / decimate=1 / interlaced=0 / bluray_compat=0 / constrained_intra=0 / fgo=0 / bframes=11 / b_pyramid=2 / b_adapt=2 / b_bias=0 / direct=3 / weightb=1 / open_gop=0 / weightp=2 / keyint=250 / keyint_min=24 / scenecut=40 / intra_refresh=0 / rc=crf / mbtree=0 / crf=16.6000 / qcomp=0.70 / qpmin=0 / qpmax=69 / qpstep=4 / ip_ratio=1.30 / pb_ratio=1.20 / aq=1:0.65
Language : English
Default : Yes
Forced : No
Matrix coefficients : BT.709
Audio #1
ID : 2
Format : AC-3
Format/Info : Audio Coding 3
Mode extension : CM (complete main)
Format settings, Endianness : Big
Codec ID : A_AC3
Duration : 1h 37mn
Bit rate mode : Constant
Bit rate : 384 Kbps
Channel(s) : 6 channels
Channel positions : Front: L C R, Side: L R, LFE
Sampling rate : 48.0 KHz
Bit depth : 16 bits
Compression mode : Lossy
Stream size : 269 MiB (4%)
Title : MVO R5
Language : Russian
Default : Yes
Forced : No
Audio #2
ID : 3
Format : DTS
Format/Info : Digital Theater Systems
Codec ID : A_DTS
Duration : 1h 37mn
Bit rate mode : Constant
Bit rate : 1 510 Kbps
Channel(s) : 6 channels
Channel positions : Front: L C R, Side: L R, LFE
Sampling rate : 48.0 KHz
Bit depth : 24 bits
Compression mode : Lossy
Stream size : 1.03 GiB (16%)
Title : Original
Language : English
Default : No
Forced : No
Text #1
ID : 4
Format : UTF-8
Codec ID : S_TEXT/UTF8
Codec ID/Info : UTF-8 Plain Text
Title : R5
Language : Russian
Default : No
Forced : No
Text #2
ID : 5
Format : UTF-8
Codec ID : S_TEXT/UTF8
Codec ID/Info : UTF-8 Plain Text
Title : DVD
Language : English
Default : No
Forced : No
Menu
00:00:00.000 : en:00:00:00.000
00:02:32.042 : en:00:02:32.042
00:05:24.750 : en:00:05:24.750
00:10:34.417 : en:00:10:34.417
00:17:53.542 : en:00:17:53.542
00:26:50.792 : en:00:26:50.792
00:33:11.375 : en:00:33:11.375
00:37:36.250 : en:00:37:36.250
00:44:12.833 : en:00:44:12.833
00:53:48.500 : en:00:53:48.500
01:01:56.667 : en:01:01:56.667
01:12:46.500 : en:01:12:46.500
01:19:36.375 : en:01:19:36.375
01:32:03.958 : en:01:32:03.958
01:33:02.708 : en:01:33:02.708

Скриншоты

source vs TayTO





_________________
Показать сообщения:    

Текущее время: Сегодня 00:46

Часовой пояс: GMT



Вы не можете начинать темы
Вы не можете отвечать на сообщения
Вы не можете редактировать свои сообщения
Вы не можете удалять свои сообщения
Вы не можете голосовать в опросах
Вы не можете прикреплять файлы к сообщениям
Вы не можете скачивать файлы