Важное объявление!
У Нас Все раздачи мультитрекерные, при нуле пиров в релизах, можете смело вставать на закачку!
Статистика раздачи
Размер:     |    Зарегистрирован:     |    Скачан:     |   
Нет
 
     
 
 
Автор Сообщение

димитри37

Стаж:
4 года 5 месяцев
Сообщений:
1236

Репутация: 127

[+] [-]
Вне форума [Профиль] [ЛС]

Идеальная пятница / Perfect Friday
Год выпуска: 1970.
Страна: Великобритания
Киностудии: Sunnymede Film Productions.
Жанр: Криминальная комедия.
Продолжительность: 01:34:02.
Перевод: Профессиональный (двухголосый закадровый) НТВ+.
Русские субтитры: нет.
Оригинальная аудио дорожка: нет.
Режиссер: Питер Холл / Peter Hall /.
В ролях:Урсула Андресс, Стэнли Бэйкер, Дэвид Уорнер, Пейшнс Коллиер, Т.П. МакКенна, Дэвид Уоллер, Джоан Бенэм, Джулиан Орчард, Триша Мортимер, Энн Тирард, Джонни Бриггс, Фред Гриффитс, Сидни Дженнингс, Хью Холлидэй.
Описание: Скучающий помощник заместителя управляющего банком задумал простое, но надежное ограбление на 200 тысяч фунтов стерлингов. Он находит себе помощников: безпринципную девицу и избалованного ленивого пэра. Для выполнения хитроумного плана осталось лишь дождаться идеальной пятницы...

Рейтинг R - Детям до 17 лет обязательно присутствие родителей.

Качество: HDRip
Формат: AVI
Видео: 608x368 (1.65:1), 24 fps, XviD build 50 ~985 kbps avg, 0.18 bit/pixel
Аудио: 48 kHz, MPEG Layer 3, 2 ch, ~112.00 kbps avg

Отчет MediaInfo

Общее
Полное имя : Idealnaja.pjatnica.1970.XviD.HDRip.by.HeDgEhOt_745.avi
Формат : AVI
Формат/Информация : Audio Video Interleave
Размер файла : 745 Мбайт
Продолжительность : 1 ч. 34 м.
Общий поток : 1107 Кбит/сек
Название фильма : Идеальная пятница / Perfect Friday (1970)
Правообладатель : HeDgEhOt®
Видео
Идентификатор : 0
Формат : MPEG-4 Visual
Профиль формата : Advanced Simple@L5
Параметр BVOP формата : 1
Параметр QPel формата : Нет
Параметр GMC формата : Без точки перехода
Параметр матрицы формата : Default (MPEG)
Идентификатор кодека : XVID
Идентификатор кодека/Подсказка : XviD
Продолжительность : 1 ч. 34 м.
Битрейт : 986 Кбит/сек
Ширина : 608 пикселей
Высота : 368 пикселей
Соотношение сторон : 1,652
Частота кадров : 24,000 кадра/сек
Цветовое пространство : YUV
Субдискретизация насыщенности : 4:2:0
Битовая глубина : 8 бит
Тип развёртки : Прогрессивная
Метод сжатия : С потерями
Бит/(Пиксели*Кадры) : 0.184
Размер потока : 663 Мбайт (89%)
Библиотека кодирования : XviD 1.2.1 (UTC 2008-12-04)
Аудио
Идентификатор : 1
Формат : MPEG Audio
Версия формата : Version 1
Профиль формата : Layer 3
Режим : Joint stereo
Расширение режима : MS Stereo
Идентификатор кодека : 55
Идентификатор кодека/Подсказка : MP3
Продолжительность : 1 ч. 34 м.
Вид битрейта : Постоянный
Битрейт : 112 Кбит/сек
Каналы : 2 канала
Частота : 48,0 КГц
Метод сжатия : С потерями
Размер потока : 75,3 Мбайт (10%)
Выравнивание : Соединение по промежуткам
Продолжительность промежутка : 42 мс. (1,00 видеокадр)
Время предзагрузки промежутка : 504 мс.
Язык : Russian

Скриншоты

Альтернативный хост

Показать сообщения:    

Текущее время: Сегодня 10:44

Часовой пояс: GMT



Вы не можете начинать темы
Вы не можете отвечать на сообщения
Вы не можете редактировать свои сообщения
Вы не можете удалять свои сообщения
Вы не можете голосовать в опросах
Вы не можете прикреплять файлы к сообщениям
Вы не можете скачивать файлы