Ивановский Торрент трекер
Яндекс.Погода
 

[Цитировать]
HUNTER

Идеальная пара- -Страна: Россия
Жанр: мелодрама
Год выпуска: 2014
Производство: «Киностудия Маркес»
Продолжительность: 01:29:38
Оригинальная аудиодорожка: русский
Cубтитры: нет-Режиссер: Ольга Доброва-Куликова-В ролях:
Анна Уколова, Андрей Чадов, Ирина Знаменщикова, Александр Никольский,
Мария Дорогова, Виктор Маркин (II), Ксения Щербакова, Екатерина Варкова-Описание:
Зоя — спортсменка с мужским характером. Поэтому сильному полу с ней тяжело, и они от нее сбегают. Но Зоя мечтает выйти замуж и завести детей. Кеша — холостяк, живет с родителями. Однажды он уходит из дома с намерением жениться на первой встречной. Ей оказывается Зоя, которая решает, что сможет сделать из Кеши идеального мужа. Он предлагает Зое переделать друг друга: день она, день он. Кеша, наконец, находит женщину своей мечты, которая его понимает. А Зоя встречает отличного парня. Однако скоро обнаруживается, что «переделка» не прошла даром…-Возраст: 16+-Качество: HDTV (1080i)
Формат: TS
Видео кодек: AVC
Аудио кодек: MPEG Audio

Видео: AVC, 1920 х 1080 (16:9), 25,000 кадр/сек, 7 938 Кбит/сек, 0.153 bit/pixel
Аудио: MPEG Audio 2, 48000 Hz, 256 Kbps, 2 канала
-

MediaInfo

General
ID : 1 (0x1)
Complete name : D:\Раздачи\Идеальная пара HDTV (1080i)\Идеальная пара HDTV (1080i).ts
Format : MPEG-TS
File size : 5.40 GiB
Duration : 1h 29mn
Overall bit rate mode : Variable
Overall bit rate : 8 622 Kbps
Video
ID : 1000 (0x3E8)
Menu ID : 1 (0x1)
Format : AVC
Format/Info : Advanced Video Codec
Format profile : High@L4
Format settings, CABAC : Yes
Format settings, ReFrames : 4 frames
Codec ID : 27
Duration : 1h 29mn
Bit rate : 7 938 Kbps
Width : 1 920 pixels
Height : 1 080 pixels
Display aspect ratio : 16:9
Frame rate : 25.000 fps
Color space : YUV
Chroma subsampling : 4:2:0
Bit depth : 8 bits
Scan type : MBAFF
Scan type, store method : Interleaved fields
Scan order : Top Field First
Bits/(Pixel*Frame) : 0.153
Stream size : 4.97 GiB (92%)
Audio
ID : 1101 (0x44D)
Menu ID : 1 (0x1)
Format : MPEG Audio
Format version : Version 1
Format profile : Layer 2
Codec ID : 3
Duration : 1h 29mn
Bit rate mode : Constant
Bit rate : 256 Kbps
Channel(s) : 2 channels
Sampling rate : 48.0 KHz
Compression mode : Lossy
Stream size : 164 MiB (3%)
Language : English

Скриншоты


-Раздаю до первых 5-ти скачавших, на раздачи не возвращаюсь...-
0 человек читают эту тему: 0 пользователей, 0 скрытых пользователей, 0 гостей

Показать сообщения:    

Текущее время: 22-Авг 23:38

Часовой пояс: UTC - 1


Вы не можете начинать темы
Вы не можете отвечать на сообщения
Вы не можете редактировать свои сообщения
Вы не можете удалять свои сообщения
Вы не можете голосовать в опросах
Вы не можете прикреплять файлы к сообщениям
Вы не можете скачивать файлы

!ВНИМАНИЕ!
Сайт не предоставляет электронные версии произведений, а занимается лишь коллекционированием и каталогизацией ссылок, присылаемых и публикуемых на форуме нашими читателями. Если вы являетесь правообладателем какого-либо представленного материала и не желаете, чтобы ссылка на него находилась в нашем каталоге, свяжитесь с нами, и мы незамедлительно удалим ее. Файлы для обмена на трекере предоставлены пользователями сайта, и администрация не несет ответственности за их содержание. Просьба не заливать файлы, защищенные авторскими правами, а также файлы нелегального содержания!