Важное объявление!
У Нас Все раздачи мультитрекерные, при нуле пиров в релизах, можете смело вставать на закачку!
 
Автор Сообщение

HUNTER

Стаж:
4 года 6 месяцев
Сообщений:
60970

Репутация: 101

[+] [-]
Вне форума [Профиль] [ЛС]

Игры разума / Brain Games
Год выпуска: 2013-2014
Страна: США, National Geographic
Жанр: Документальный
Продолжительность: ~ 00:21:59
Перевод: Профессиональный (одноголосый) студия АРК ТВ
Русские субтитры: нет
Режиссер: Трей Нельсон / Trey Nelson
Описание: Программа Игры разума приглашает вас в путешествие в мир интерактивных игр и тестов, которые помогут вам понять, как устроен ваш мозг. По-настоящему умопомрачительные эксперименты протестируют то, как ваш мозг воспринимает окружающий мир. Исследуя внимание, страх, убеждение и принятие решений, Игры разума заставляет вас задуматься о собственном мозге. Ведь именно он делает вас…вами.
качество: HDTVRip
формат: AVI
Видео: XviD. 720x400 (16:9) 25.00fps : 1700 Кбит/сек
Аудио: Русский AC3, 2 ch, 192 Кбит/с
Аудио: Английский AC3, 6 ch, 384 Кбит/с
Официальный сайт
Релиз Рип, и работа со звуком

Список выпусков/серий

01. Живой цвет (In Living Color)
Думаете, яблоко красное, а лист зеленый? Вы удивитесь, когда мы откроем шокирующую правду о том, что цвет - это лишь заблуждение вашего мозга.
02. Законы привлекательности (Laws of Attraction)
С помощью интерактивных игр мы узнаем о законах привлекательности и о том, как наш мозг решает, что для него притягательно, а что нет.
03. Доверься мне (Trust Me)
Что такое "доверие"? Серия забавных интерактивных научных игр показывает, как обрести доверие в нашем ненадежном мире.
04. Битва возрастов (Battle Of The Ages)
Хотите узнать, как работает ваш мозг? Специалисты в области когнитивной науки, нейрофизиологии и психологии объясняют, как мозг воспринимает мир.
05. Стресс-тест (Stress Test)
Узнайте о том, как мозг справляется со стрессом и как стресс влияет на него. От пробок до плачущих детей - может ли стресс быть полезным?
06. Что происходит (Wats Goin On)
Хотите узнать, как работает ваш мозг? Специалисты в области когнитивной науки, нейрофизиологии и психологии объясняют, как мозг воспринимает мир.
07. Переучи свой мозг (Retrain Your Brain)
Хотите узнать, как работает ваш мозг? Специалисты в области когнитивной науки, нейрофизиологии и психологии объясняют, как мозг воспринимает мир.
08. Познай своё тело (Mind Your Body)
Хотите узнать, как работает ваш мозг? Специалисты в области когнитивной науки, нейрофизиологии и психологии объясняют, как мозг воспринимает мир.
09. Главное - победить (In It To Win It)
Каждый день вы соревнуетесь - с самим собой или с другими. Узнайте, почему ваш мозг заставляет вас хотеть быть лучше других.
10. Следуй за лидером (Follow The Leader)
Всем хочется думать, что они уникальны, но, приятно это вам или нет, во многом ваше поведение зависит от подражания другим.

MediaInfo

Format : AVI
Format/Info : Audio Video Interleave
File size : 348 MiB
Duration : 21mn 15s
Overall bit rate : 2 290 Kbps
Writing application : VirtualDubModRus 1.5.10.2 (build 2542/release)
Writing library : VirtualDubMod build 2542/release
Video
ID : 0
Format : MPEG-4 Visual
Format profile : Advanced Simple@L5
Format settings, BVOP : 2
Format settings, QPel : No
Format settings, GMC : No warppoints
Format settings, Matrix : Default (H.263)
Codec ID : XVID
Codec ID/Hint : XviD
Duration : 21mn 15s
Bit rate : 1 700 Kbps
Width : 720 pixels
Height : 400 pixels
Display aspect ratio : 16:9
Frame rate : 25.000 fps
Color space : YUV
Chroma subsampling : 4:2:0
Bit depth : 8 bits
Scan type : Progressive
Compression mode : Lossy
Bits/(Pixel*Frame) : 0.236
Stream size : 258 MiB (74%)
Writing library : XviD 1.2.1 (UTC 2008-12-04)
Audio #1
ID : 1
Format : AC-3
Format/Info : Audio Coding 3
Mode extension : CM (complete main)
Format settings, Endianness : Big
Codec ID : 2000
Duration : 21mn 14s
Bit rate mode : Constant
Bit rate : 192 Kbps
Channel count : 2 channels
Channel positions : Front: L R
Sampling rate : 48.0 KHz
Bit depth : 16 bits
Compression mode : Lossy
Stream size : 29.2 MiB (8%)
Alignment : Split accross interleaves
Interleave, duration : 40 ms (1.00 video frame)
Interleave, preload duration : 500 ms
Audio #2
ID : 2
Format : AC-3
Format/Info : Audio Coding 3
Mode extension : CM (complete main)
Format settings, Endianness : Big
Codec ID : 2000
Duration : 21mn 14s
Bit rate mode : Constant
Bit rate : 384 Kbps
Channel count : 6 channels
Channel positions : Front: L C R, Side: L R, LFE
Sampling rate : 48.0 KHz
Bit depth : 16 bits
Compression mode : Lossy
Stream size : 58.4 MiB (17%)
Alignment : Split accross interleaves
Interleave, duration : 40 ms (1.00 video frame)
Interleave, preload duration : 500 ms

Скриншоты


Если вы скачали данный релиз и хотите выложить его на другом ресурсе -
пожалуйста, указывайте первоисточник ,имейте уважение, к другим!

_________________
Показать сообщения:    

Текущее время: Сегодня 10:19

Часовой пояс: GMT



Вы не можете начинать темы
Вы не можете отвечать на сообщения
Вы не можете редактировать свои сообщения
Вы не можете удалять свои сообщения
Вы не можете голосовать в опросах
Вы не можете прикреплять файлы к сообщениям
Вы не можете скачивать файлы
Наши партнеры: интернет магазин Ивановского трикотажа textilla.ru