Ивановский Торрент трекер
Яндекс.Погода
 

[Цитировать]
HUNTER

--Игры разума/A Beautiful Mind«Если реальность ополчились на вас, ничего больше не в безопасности ...»-- ___________________________________Год выпуска: 2001
Страна: США
Жанр: драма, биография
Режиссер: Рон Ховард
В ролях:
Рассел Кроу,Эд Харрис,Дженнифер Коннелли,Кристофер Пламмер,Пол Беттани,Адам Голдберг,Джош Лукас,Энтони Рэпп,Джейсон Грей-Стенфорд,Джадд Хёрш,..
Описание:
От всемирной известности до греховных глубин — все это познал на своей шкуре Джон Форбс Нэш-младший. Математический гений, он на заре своей карьеры сделал титаническую работу в области теории игр, которая практически перевернула этот раздел математики и практически принесла ему международную известность.
Однако буквально в то же время заносчивый и пользующийся успехом у женщин Нэш получает удар, который переворачивает уже его собственную жизнь — врачи ставят ему диагноз «параноидная шизофрения»…-- ---

Награды


Золотой орел, 2003 год
Номинации (1):
Лучший зарубежный фильм в российском прокате — «ИСТ-ВЕСТ»

Оскар, 2002 год
Победитель (4):
Лучший фильм
Лучшая женская роль второго плана (Дженнифер Коннелли)
Лучший режиссер (Рон Ховард)
Лучший адаптированный сценарий
Номинации (4):
Лучшая мужская роль (Рассел Кроу)
Лучший монтаж
Лучший грим
Лучший оригинальный саундтрек

Золотой глобус, 2002 год
Победитель (4):
Лучший фильм (драма)
Лучшая мужская роль (драма) (Рассел Кроу)
Лучшая женская роль второго плана (Дженнифер Коннелли)
Лучший сценарий
Номинации (2):
Лучший режиссер (Рон Ховард)
Лучший саундтрек

Премия канала «MTV», 2002 год
Номинации (1):
Лучшая мужская роль (Рассел Кроу)

Британская академия, 2002 год
Победитель (2):
Лучшая мужская роль (Рассел Кроу)
Лучшая женская роль второго плана (Дженнифер Коннелли)
Номинации (3):
Лучший фильм
Лучший адаптированный сценарий
Премия имени Дэвида Лина за достижения в режиссуре (Рон Ховард) Знаете ли вы...
  • Режиссерское место изначально предписывалось Роберту Редфорду.
  • Джона Нэша мог сыграть Том Круз.
  • Постельная сцена между героями Кроу и Коннелли была вырезана из финальной версии картины.
  • Джон Нэш (которого в фильме играет Рассел Кроу) был приглашен на съемочную площадку, чтобы помочь актерам достовернее сыграть свои роли. Рассел Кроу позднее признался, что был восхищен тем, как Джон совершает движения руками, и попытался проделать то же самое в ходе съемок.
  • На исполнение роли Алисии Лард приглашали Сальму Хайек.
  • Гарвардские сцены на самом деле были отсняты в Манхэттенском Колледже.
  • За право экранизировать жизнь Джона Нэша боролись два претендента-продюсера. Победу в этом споре одержал Брайн Грэйзер, неудачником же стал Скотт Рудин.
  • Профессор Дэйв Байер стал главным консультантом картины и даже попал в кадр. Именно его руки вырисовывают сложные формулы на окнах.
  • Несмотря на то, что картина представляет из себя некую биографию жизни Джона Нэша, кое-какие детали жизни великого математика были намеренно упущены: 1) Джон был женат несколько раз; 2) в молодости Джон был бисексуалом — имел близкие отношения как с женщинами, так и с мужчинами; 3) у Джона был внебрачный ребенок.
  • Джон Нэш действительно получил Нобелевскую премию, но не один, а вместе с коллегами — Рейнхардом Селтеном и венгром Яношем Харсаньи. Более того, основателем «Теории Игр» стал другой венгр — Янош Ньюман. Нэш отличился тем, что сумел применить положения «теории игр» в мире бизнеса.
  • На роль режиссёра фильма был предложен Роберт Редфорд, но его не устроило расписание съемок.
  • Когда Нэш впервые видит Паркера, он обращается к нему как к «большому брату» (намёк на роман Оруэлла «1984»). Ещё одна отсылка к Оруэллу происходит позднее, когда мы видим номер на двери кабинета Нэша — 101.
  • В роли рукописи, которую молодой Джон Нэш показывает своему куратору, профессору Хелинджеру, выступает подлинная копия статьи, напечатанной в журнале Econometrica под заголовком «Задача совершения сделки».
  • Сценарист фильма Акива Голдсман имел немалый опыт общения с душевнобольными людьми: в свою бытность врачом он лично разрабатывал методики восстановления душевного здоровья детей и взрослых.
  • Куратором фильма по математической части стал профессор Барнардского колледжа Дэйв Байер — именно его рукой Расселл Кроу «выводит» на доске мудрёные формулы. «Мудрёные формулы» при внимательном рассмотрении представляют собой просто бессмысленный набор греческих букв, стрелок и математических знаков. Видимо, профессору зря платили зарплату.
  • В отличие от своего экранного двойника, отличавшегося редкой преданностью своей «половинке», реальный Джон Нэш в своей жизни несколько раз был женат, а в двадцать с небольшим лет усыновил внебрачного ребенка.
  • В фильме Дженнифер Коннелли играет жену Рассела Кроу. В реальной же жизни, ее муж - Пол Беттани, который сыграл роль друга Кроу.
  • Съемки начались на следующий день после Оскаровской церемонии, на которой Рассел получил награду как лучший актер за «Гладиатора».
  • Реальные Джон и Алисия Нэш развелись во время пика его болезни, но Алисия из жалости позволяла ему жить в их доме. А во время съемок «Игр разума» они вновь поженились.
  • В части фильма, относящейся к периоду вручения Нобелевской Премии (1994 г.), Нэш говорит о том, что якобы принимает антипсихотики нового типа, однако в действительности Джон Нэш отказался от них еще в 1970 году, и его ремиссия не была связана с приемом нейролептиков.
  • У сына Нэша впоследствии так же развилась шизофрения.
  • В сцене, когда Джона Нэша похищают «русские шпионы», среди учеников, наблюдающих за этим, можно заметить дочку режиссера Рона Ховарда и известную актрису Брайс Даллас Ховард.

МедиаИнфо

Format : Matroska
Format version : Version 2
File size : 4.37 GiB
Duration : 2h 15mn
Overall bit rate : 4 626 Kbps
Movie name : Игры разума.2001
Encoded date : UTC 2012-04-11 14:13:20
Writing application : mkvmerge v5.5.0 ('Healer') built on Apr 10 2012 09:33:48
Writing library : libebml v1.2.3 + libmatroska v1.3.0
Video
ID : 1
Format : AVC
Format/Info : Advanced Video Codec
Format profile : High@L4.1
Format settings, CABAC : Yes
Format settings, ReFrames : 4 frames
Codec ID : V_MPEG4/ISO/AVC
Duration : 2h 15mn
Bit rate : 4 242 Kbps
Width : 1 920 pixels
Height : 1 040 pixels
Display aspect ratio : 16:9
Frame rate : 23.976 fps
Color space : YUV
Chroma subsampling : 4:2:0
Bit depth : 8 bits
Scan type : Progressive
Bits/(Pixel*Frame) : 0.089
Stream size : 3.92 GiB (90%)
Title : Rip by Boriy
Writing library : x264 core 122 r2184 5c85e0a
Encoding settings : cabac=1 / ref=4 / deblock=1:0:0 / analyse=0x3:0x113 / me=umh / subme=10 / psy=1 / psy_rd=1.00:0.10 / mixed_ref=1 / me_range=32 / chroma_me=1 / trellis=2 / 8x8dct=1 / cqm=0 / deadzone=21,11 / fast_pskip=0 / chroma_qp_offset=-3 / threads=12 / sliced_threads=0 / nr=0 / decimate=1 / interlaced=0 / bluray_compat=0 / constrained_intra=0 / bframes=5 / b_pyramid=2 / b_adapt=2 / b_bias=0 / direct=3 / weightb=1 / open_gop=0 / weightp=2 / keyint=240 / keyint_min=23 / scenecut=40 / intra_refresh=0 / rc_lookahead=60 / rc=2pass / mbtree=1 / bitrate=4242 / ratetol=1.0 / qcomp=0.60 / qpmin=0 / qpmax=69 / qpstep=4 / cplxblur=20.0 / qblur=0.5 / ip_ratio=1.40 / aq=1:1.00
Language : English
Default : Yes
Forced : No
Audio
ID : 2
Format : AC-3
Format/Info : Audio Coding 3
Mode extension : CM (complete main)
Codec ID : A_AC3
Duration : 2h 15mn
Bit rate mode : Constant
Bit rate : 384 Kbps
Channel(s) : 6 channels
Channel positions : Front: L C R, Side: L R, LFE
Sampling rate : 48.0 KHz
Bit depth : 16 bits
Compression mode : Lossy
Stream size : 372 MiB (8%)
Title : Дубляж
Language : Russian
Default : Yes
Forced : No Продолжительность: 02:15:00
Качество видео: BDRip 1080p

Скриншоты

Видео: кодек: H.264/AVC [MPEG-4 AVC] , формат: MKV , размер кадра: 1920x1040 , битрейт: 4 242 , фреймрейт: 23,976
Аудио : язык: Русский , перевод: дублированный (дубляж) , кодек: АС3 , каналы: 6 , битрейт: 384
Cубтитры: русские (полные, форсированные), английские
Показать сообщения:    

Текущее время: 23-Окт 17:59

Часовой пояс: UTC - 1


Вы не можете начинать темы
Вы не можете отвечать на сообщения
Вы не можете редактировать свои сообщения
Вы не можете удалять свои сообщения
Вы не можете голосовать в опросах
Вы не можете прикреплять файлы к сообщениям
Вы не можете скачивать файлы

!ВНИМАНИЕ!
Сайт не предоставляет электронные версии произведений, а занимается лишь коллекционированием и каталогизацией ссылок, присылаемых и публикуемых на форуме нашими читателями. Если вы являетесь правообладателем какого-либо представленного материала и не желаете, чтобы ссылка на него находилась в нашем каталоге, свяжитесь с нами, и мы незамедлительно удалим ее. Файлы для обмена на трекере предоставлены пользователями сайта, и администрация не несет ответственности за их содержание. Просьба не заливать файлы, защищенные авторскими правами, а также файлы нелегального содержания!