Ивановский Торрент трекер
Яндекс.Погода
 

[Цитировать]
HUNTER

Игры киллеров / Оружие / Assassination Games- Страна: США, Румыния
Студия: Mediapro Studios, Motion Picture Corporation of America (MPCA), Rodin Entertainment
Жанр: Боевик, триллер
Год выпуска: 2011
Продолжительность: 01:39:46-Перевод: Профессиональный (дублированный)
Cубтитры: русские, английские
Оригинальная аудиодорожка: английский-Режиссер: Эрни Барбараш / Ernie Barbarash
В ролях: Жан-Клод Ван Дамм, Скотт Эдкинс, Айван Кэй, Валентин Теодосию, Элин Пэнк, Кевин Чэпмен, Сербан Целеа, Майкл Хиггс, Кристофер Ван Варенберг, Мария Каран, Бьянка Бри, Эндрю Френч, Аттила Арпа, Мариоара Стериан, Джордж Ремис, Юлия Люмэнаре, Флорин Басуйок, Сорин Кристи, Йоана Павелеску, Анхель Кристиан, Салахадин Х. Безтаут, Релю Поалеланги, Мария-Антуанетта Тудор, Лоредана Гроуза, Клаудиу Трандафир, Бой Превос
Описание: Роланд Флинт и Винсент Брэйзил — отъявленные наёмники, мастера восточных единоборств и гуру военного искусства. Винсент специализируется на холодном оружии, в то время, как Роланд является первоклассным стрелком. Они не знакомы друг другу, но вскоре им предстоит создать непростой альянс и колоритный тандем.
В один прекрасный день двум профессионалам поручили задание — любой ценой уничтожить наркокартель, заполонившую всю округу «товаром», а вместе с тем — убрать её всесильного босса, покрываемого управлением по борьбе с наркотиками.
Однако, за простой, с первого взгляда, миссией кроется предательство, подстава и тёмные проделки влиятельных лиц и воротил преступного мира, объявивших охоту на самих наёмников. Теперь крутым ребятам придётся на собственной шкуре ощутить, что значит быть жертвой и постоянно оглядываться назад. Война начинается и кровопролитной битвы не избежать…-Доп. информация: Релиз сделан из ремукса, скаченного в сети. Оттуда же взяты главы, аудиодорожки и субтитры. Меню самодельное. Двд собрал в DVD Lab. Видео сжато Pro Coder в 2 прохода по этой инструкции. За столь ценное руководство спасибо Mikky72. Отдельная благодарность уходит ZVNV, который стойко выдержал испытание моими глупыми и не очень вопросами Еще одно спасибо AlsKnight за решение проблемы с кадрами.-Релиз групп: -
СЭМПЛ
-Меню: Есть, на русском языке, статичное, озвученное-Тип релиза: DVD5 (Custom)
Контейнер: DVD-Video
Видео: NTSC 16:9 (720x480) VBR
Аудио : Русский (Dolby AC3, 6 ch, 448 кб/с, дубляж)
Аудио 2: Английский (Dolby AC3, 6 ch, 448 кб/с)-

MI исходника

Формат : Matroska
Версия формата : Version 4 / Version 2
Размер файла : 20,2 Гбайт
Продолжительность : 1 ч. 39 м.
Режим общего битрейта : Переменный
Общий поток : 28,9 Мбит/сек
Название фильма : -=MediaClub-kaspr=-
Дата кодирования : UTC 2014-02-26 14:29:51
Программа кодирования : mkvmerge v6.1.0 ('Old Devil') built on Mar 4 2013 09:10:42
Библиотека кодирования : libebml v1.3.0 + libmatroska v1.4.0
Видео
Идентификатор : 1
Формат : AVC
Формат/Информация : Advanced Video Codec
Профиль формата : High@L4.1
Параметр CABAC формата : Да
Параметр ReFrames формата : 2 кадра
Параметр GOP формата : M=1, N=10
Идентификатор кодека : V_MPEG4/ISO/AVC
Продолжительность : 1 ч. 39 м.
Вид битрейта : Переменный
Битрейт : 26,3 Мбит/сек
Ширина : 1920 пикселей
Высота : 1080 пикселей
Соотношение сторон : 16:9
Частота кадров : 23,976 кадра/сек
Цветовое пространство : YUV
Субдискретизация насыщенности : 4:2:0
Битовая глубина : 8 бит
Тип развёртки : Прогрессивная
Бит/(Пиксели*Кадры) : 0.529
Размер потока : 18,4 Гбайт (91%)
Заголовок : -=MediaClub-kaspr=-
Аудио #1
Идентификатор : 2
Формат : AC-3
Формат/Информация : Audio Coding 3
Расширение режима : CM (complete main)
Идентификатор кодека : A_AC3
Продолжительность : 1 ч. 39 м.
Вид битрейта : Постоянный
Битрейт : 448 Кбит/сек
Каналы : 6 каналов
Расположение каналов : Front: L C R, Side: L R, LFE
Частота : 48,0 КГц
Битовая глубина : 16 бит
Метод сжатия : С потерями
Размер потока : 320 Мбайт (2%)
Заголовок : Дубляж
Язык : Russian
Аудио #2
Идентификатор : 3
Формат : DTS
Формат/Информация : Digital Theater Systems
Профиль формата : MA / Core
Идентификатор кодека : A_DTS
Продолжительность : 1 ч. 39 м.
Вид битрейта : Переменный
Битрейт : 1561 Кбит/сек / 1510 Кбит/сек
Каналы : 6 каналов
Расположение каналов : Front: L C R, Side: L R, LFE
Частота : 48,0 КГц
Битовая глубина : 24 бит
Метод сжатия : Без потерь / Lossy
Язык : English
Текст #1
Идентификатор : 4
Формат : UTF-8
Идентификатор кодека : S_TEXT/UTF8
Идентификатор кодека/Информация : UTF-8 Plain Text
Язык : Russian
Текст #2
Идентификатор : 5
Формат : UTF-8
Идентификатор кодека : S_TEXT/UTF8
Идентификатор кодека/Информация : UTF-8 Plain Text
Язык : English
Меню
00:00:00.000 : en:Chapter 01
00:07:57.977 : en:Chapter 02
00:11:13.713 : en:Chapter 03
00:17:42.519 : en:Chapter 04
00:21:57.648 : en:Chapter 05
00:30:29.953 : en:Chapter 06
00:37:04.597 : en:Chapter 07
00:41:24.732 : en:Chapter 08
00:46:33.457 : en:Chapter 09
00:51:43.850 : en:Chapter 10
00:58:31.591 : en:Chapter 11
01:07:04.770 : en:Chapter 12
01:11:32.537 : en:Chapter 13
01:17:46.119 : en:Chapter 14
01:23:49.607 : en:Chapter 15
01:32:09.106 : en:Chapter 16

DVDInfo

Size: 4.35 Gb ( 4 557 868 KBytes ) - DVD-5
Enabled regions: 1, 2, 3, 4, 5, 6, 7, 8
VTS_01 :
Play Length: 01:39:46
Video: NTSC 16:9 (720x480) VBR, Auto Pan&Scan
Audio:
Russian (Dolby AC3, 6 ch)
English (Dolby AC3, 6 ch)
Subtitles:
Russian
English
Menu Video:
NTSC 4:3 (720x480) VBR
Menu English Language Unit :
Root Menu

Скриншоты меню

Скриншоты

Скрипт

LoadPlugin("C:\Users\SkyWalker\Desktop\DGDecodeNV\DGDecodeNV.dll")
DGSource("project.dgi") #если в исходнике отсутствуют артефакты
LoadPlugin("C:\Program Files\AutoYUY2\AutoYUY2.dll") #более медленный, но качественный аналог ConvertToYUY2()
AutoYUY2()
LoadPlugin("C:\Program Files\ColorMatrix\ColorMatrix.dll")
ColorMatrix(mode="Rec.709->Rec.601", inputFR=false, clamp=0) #корректировка цветовой шкалы, если проверка показывает 16-235
AssumeFPS("ntsc_film")
BicubicResize(720, 480, 0, 0.5) #ресайз методом Catmull-Rom spline
AddBorders (0,0,0,0) #bbb=00

Программы, используемые при создание этого релиза

Видео
Rhozet Carbon Coder - конвертация видео
AviSynth - обработка видео
DGDecodeNV - индексирование
Програмы для разборки/сборки ДВД
PgcDemux - демукс исходного DVD
tsMuxeR - разборка ремукса
MuxMan - сборка видео
Работа со звуком
TranzcodeGUI - извлечение wav
Sonic Foundry Soft Encode - кодирование и сборка ac3 дорожки
Работа с субтитрами
DVDSubEdit - корректировка таймингов и расположения на экране субтитров
Работа с меню и реавторинг
Adobe Photoshop - редактирование меню
DVDReMakePro - реавторинг диска


Показать сообщения:    

Текущее время: 11-Дек 23:04

Часовой пояс: UTC ± 0


Вы не можете начинать темы
Вы не можете отвечать на сообщения
Вы не можете редактировать свои сообщения
Вы не можете удалять свои сообщения
Вы не можете голосовать в опросах
Вы не можете прикреплять файлы к сообщениям
Вы не можете скачивать файлы

!ВНИМАНИЕ!
Сайт не предоставляет электронные версии произведений, а занимается лишь коллекционированием и каталогизацией ссылок, присылаемых и публикуемых на форуме нашими читателями. Если вы являетесь правообладателем какого-либо представленного материала и не желаете, чтобы ссылка на него находилась в нашем каталоге, свяжитесь с нами, и мы незамедлительно удалим ее. Файлы для обмена на трекере предоставлены пользователями сайта, и администрация не несет ответственности за их содержание. Просьба не заливать файлы, защищенные авторскими правами, а также файлы нелегального содержания!