Игрушка / The Toy / Le jouet (Франсис Вебер / Francis Veber) [1976, Франция, комедия, BDRip 720p] DUB (Советский дубляж) + 2x MVO (ОРТ, CP-Digital) + DVO (Рен-ТВ/ТВЦ) + Original (Fre) + Sub (Rus, Fre, Eng) :: Ивановский Торрент трекер
Важное объявление!
У Нас Все раздачи мультитрекерные, при нуле пиров в релизах, можете смело вставать на закачку!
Статистика раздачи
Размер:     |    Зарегистрирован:     |    Скачан:     |   
Нет
 
     
 
 
Автор Сообщение

HUNTER

Стаж:
4 года 11 месяцев
Сообщений:
66054

Репутация: 101

[+] [-]
Вне форума [Профиль] [ЛС]

Игрушка / The Toy / Le jouet-
Страна: Франция
Жанр: комедия
Год выпуска: 1976
Продолжительность: 01:33:53-Перевод №1: Профессиональный (дублированный) | Советский дубляж
Перевод №2: Профессиональный (многоголосый закадровый) | ОРТ
Перевод №3: Профессиональный (двухголосый закадровый) | Рен-ТВ/ТВЦ
Перевод №4: Профессиональный (многоголосый закадровый) | CP-Digital
Оригинальная аудиодорожка: French
Cубтитры: Russian, French, English-Режиссер: Франсис Вебер / Francis Veber
В ролях: Пьер Ришар, Мишель Буке, Фабрис Греко, Жак Франсуа, Даниэль Секкальди, Шарль Жерар, Мишель Омон, Сьюзи Дайсон, Жерар Жюньо, Мишель Робен-Описание: Стать игрушкой для малолетнего миллионера — ситуация не для слабонервных. Герой Пьера Ришара отлично справляется с ролью ужасного ребенка и, вместе с подопечным, отрывается на полную катушку.
Остановить «детский беспредел» оказывается не так просто. Особенно если учесть, что Франсуа Перрен стал для ребенка единственным по-настоящему любимым человеком…-IMDB | КиноПоиск | Сэмпл-Качество видео: BDRip 720p | исх. Игрушка / The Toy / Le jouet (1976) Blu-ray 1080p AVC DD5.1
Формат видео: MKV-Видео: 1198x720 at 23.976 fps, x264@L4.1, ~11206 kbps avg
Аудио №1: 48 kHz, AC3, 2/0 (L,R) ch, ~192.00 kbps avg | Профессиональный (дублированный) | Советский дубляж
Аудио №2: 48 kHz, AC3, 2/0 (L,R) ch, ~192.00 kbps avg | Профессиональный (многоголосый закадровый) | ОРТ
Аудио №3: 48 kHz, AC3, 2/0 (L,R) ch, ~192.00 kbps avg | Профессиональный (двухголосый закадровый) | Рен-ТВ/ТВЦ
Аудио №4: 48 kHz, AC3, 3/2 (L,C,R,l,r) + LFE ch, ~448 kbps avg | Профессиональный (многоголосый закадровый) | CP-Digital
Аудио №5: 48 kHz, DTS 2.0 (L,C)ch, ~768.00 kbps avg | French-Формат субтитров: softsub (*.srt)
Навигация по главам: Присутствует-

MediaInfo

General
Unique ID : 233748260372621499840157606537588474628 (0xAFDA47045795A83FA6D2021F763D8304)
Complete name : D:\Фильмы\The.Toy.1976.720p. BluRay.4xRus.Fre.HDCLUB-SbR .mkv
Format : Matroska
Format version : Version 4 / Version 2
File size : 8.53 GiB
Duration : 1h 33mn
Overall bit rate : 13.0 Mbps
Encoded date : UTC 2014-02-03 11:03:25
Writing application : mkvmerge v6.7.0 ('Back to the Ground') 32bit built on Jan 10 2014 19:46:37
Writing library : libebml v1.3.0 + libmatroska v1.4.1
Video
ID : 1
Format : AVC
Format/Info : Advanced Video Codec
Format profile : High@L4.1
Format settings, CABAC : Yes
Format settings, ReFrames : 9 frames
Codec ID : V_MPEG4/ISO/AVC
Duration : 1h 33mn
Bit rate : 10.9 Mbps
Width : 1 198 pixels
Height : 720 pixels
Display aspect ratio : 1.664
Frame rate mode : Constant
Frame rate : 23.976 fps
Color space : YUV
Chroma subsampling : 4:2:0
Bit depth : 8 bits
Scan type : Progressive
Bits/(Pixel*Frame) : 0.529
Stream size : 7.18 GiB (84%)
Writing library : x264 core 142 r2389kMod 956c8d8
Encoding settings : cabac=1 / ref=9 / deblock=1:-1:-1 / analyse=0x3:0x133 / me=tesa / subme=11 / psy=1 / fade_compensate=0.00 / psy_rd=1.00:0.00 / mixed_ref=1 / me_range=24 / chroma_me=1 / trellis=2 / 8x8dct=1 / cqm=0 / deadzone=21,11 / fast_pskip=0 / chroma_qp_offset=-2 / threads=6 / lookahead_threads=1 / sliced_threads=0 / nr=0 / decimate=1 / interlaced=0 / bluray_compat=0 / constrained_intra=0 / fgo=0 / bframes=12 / b_pyramid=2 / b_adapt=2 / b_bias=0 / direct=3 / weightb=1 / open_gop=0 / weightp=2 / keyint=250 / keyint_min=23 / scenecut=40 / intra_refresh=0 / rc=crf / mbtree=0 / crf=16.8000 / qcomp=0.75 / qpmin=0 / qpmax=69 / qpstep=4 / ip_ratio=1.30 / pb_ratio=1.20 / aq=1:0.70
Language : English
Default : Yes
Forced : No
Matrix coefficients : BT.709
Audio #1
ID : 2
Format : AC-3
Format/Info : Audio Coding 3
Mode extension : CM (complete main)
Format settings, Endianness : Big
Codec ID : A_AC3
Duration : 1h 33mn
Bit rate mode : Constant
Bit rate : 448 Kbps
Channel count : 6 channels
Channel positions : Front: L C R, Side: L R, LFE
Sampling rate : 48.0 KHz
Bit depth : 16 bits
Compression mode : Lossy
Stream size : 301 MiB (3%)
Title : Советский дубляж
Language : Russian
Default : Yes
Forced : No
Audio #2
ID : 3
Format : AC-3
Format/Info : Audio Coding 3
Mode extension : CM (complete main)
Format settings, Endianness : Big
Codec ID : A_AC3
Duration : 1h 33mn
Bit rate mode : Constant
Bit rate : 192 Kbps
Channel count : 2 channels
Channel positions : Front: L R
Sampling rate : 48.0 KHz
Bit depth : 16 bits
Compression mode : Lossy
Stream size : 129 MiB (1%)
Title : Многоголосый закадровый, ОРТ
Language : Russian
Default : No
Forced : No
Audio #3
ID : 4
Format : AC-3
Format/Info : Audio Coding 3
Mode extension : CM (complete main)
Format settings, Endianness : Big
Codec ID : A_AC3
Duration : 1h 33mn
Bit rate mode : Constant
Bit rate : 192 Kbps
Channel count : 2 channels
Channel positions : Front: L R
Sampling rate : 48.0 KHz
Bit depth : 16 bits
Compression mode : Lossy
Stream size : 129 MiB (1%)
Title : Двухголосый закадровый, Рен-ТВ/ТВЦ
Language : Russian
Default : No
Forced : No
Audio #4
ID : 5
Format : AC-3
Format/Info : Audio Coding 3
Mode extension : CM (complete main)
Format settings, Endianness : Big
Codec ID : A_AC3
Duration : 1h 33mn
Bit rate mode : Constant
Bit rate : 192 Kbps
Channel count : 2 channels
Channel positions : Front: L R
Sampling rate : 48.0 KHz
Bit depth : 16 bits
Compression mode : Lossy
Stream size : 129 MiB (1%)
Title : Многоголосый закадровый, CP-Digital
Language : Russian
Default : No
Forced : No
Audio #5
ID : 6
Format : DTS
Format/Info : Digital Theater Systems
Mode : 16
Format settings, Endianness : Big
Codec ID : A_DTS
Duration : 1h 33mn
Bit rate mode : Constant
Bit rate : 768 Kbps
Channel count : 2 channels
Channel positions : Front: L R
Sampling rate : 48.0 KHz
Bit depth : 16 bits
Compression mode : Lossy
Stream size : 516 MiB (6%)
Language : French
Default : No
Forced : No
Text #1
ID : 7
Format : UTF-8
Codec ID : S_TEXT/UTF8
Codec ID/Info : UTF-8 Plain Text
Language : Russian
Default : No
Forced : No
Text #2
ID : 8
Format : UTF-8
Codec ID : S_TEXT/UTF8
Codec ID/Info : UTF-8 Plain Text
Language : French
Default : No
Forced : No
Text #3
ID : 9
Format : UTF-8
Codec ID : S_TEXT/UTF8
Codec ID/Info : UTF-8 Plain Text
Language : English
Default : No
Forced : No
Menu
00:00:00.000 : en:00:00:00.000
00:05:01.927 : en:00:05:01.927
00:10:25.792 : en:00:10:25.792
00:15:03.861 : en:00:15:03.861
00:23:10.806 : en:00:23:10.806
00:30:06.179 : en:00:30:06.179
00:35:06.730 : en:00:35:06.730
00:43:40.827 : en:00:43:40.827
00:48:41.585 : en:00:48:41.585
00:54:45.324 : en:00:54:45.324
00:59:22.309 : en:00:59:22.309
01:08:46.331 : en:01:08:46.331
01:15:54.091 : en:01:15:54.091
01:21:45.359 : en:01:21:45.359
01:26:32.521 : en:01:26:32.521
01:32:03.643 : en:01:32:03.643

Дополнительно

Исходный диск приобретен в рамках сервиса "Копилка: Помоги с Blu-ray". Благодарим: dennt, igorokkk, goodugly, NickAlex и FoggyDew.
Рип от SbR
by delia

Скриншоты


_________________
Показать сообщения:    

Текущее время: Сегодня 03:55

Часовой пояс: GMT



Вы не можете начинать темы
Вы не можете отвечать на сообщения
Вы не можете редактировать свои сообщения
Вы не можете удалять свои сообщения
Вы не можете голосовать в опросах
Вы не можете прикреплять файлы к сообщениям
Вы не можете скачивать файлы