Важное объявление!
У Нас Все раздачи мультитрекерные, при нуле пиров в релизах, можете смело вставать на закачку!
 
Автор Сообщение

HUNTER

Стаж:
4 года 10 месяцев
Сообщений:
65531

Репутация: 101

[+] [-]
Вне форума [Профиль] [ЛС]

Игрушка / The Toy / Le Jouet
Год выпуска: 1976
Страна: Франция
Производство: Andrea Films, EFVE, Fideline Films, Renn Productions
Жанр: Комедия
Продолжительность: 01:33:53
Перевод 1: Профессиональный (многоголосый закадровый) | CP-Digital
Перевод 2: Профессиональный (дублированный) | Советский дубляж
Перевод 3: Профессиональный (многоголосый закадровый) | ОРТ
Перевод 3: Профессиональный (двухголосый закадровый) | Рен-ТВ/ТВЦ
Оригинальная аудиодорожка: Французский
Субтитры: Русские, французские, английские
Режиссёр: Франсис Вебер
В ролях: Пьер Ришар, Мишель Буке, Фабрис Греко, Жак Франсуа, Даниэль Секкальди, Шарль Жерар, Мишель Омон, Сьюзи Дайсон, Жерар Жюньо, Мишель Робен и др.
Описание: Стать игрушкой для малолетнего миллионера - ситуация не для слабонервных. Герой Пьера Ришара отлично справляется с ролью ужасного ребенка и, вместе с подопечным, отрывается на полную катушку. Остановить «детский беспредел» оказывается не так просто. Особенно если учесть, что Франсуа Перрен стал для ребенка единственным по-настоящему любимым человеком...


Release Group: CRiSC
Сэмпл
Качество: BDRip 1080p
Формат: MKV
Видео: MPEG-4 AVC: ~19200 kbps / 1798x1080 / 23.976 fps / 16:9
Аудио: Russian: AC3 / 5.1 / 48 kHz / 448 kbps | CP-Digital
Аудио: Russian: AC3 / 2.0 / 48 kHz / 192 kbps | Советский дубляж
Аудио: Russian: AC3 / 2.0 / 48 kHz / 192 kbps | ОРТ
Аудио: Russian: AC3 / 2.0 / 48 kHz / 192 kbps | Рен-ТВ/ТВЦ
Аудио: French: DTS / 2.0 / 48 kHz / 768 kbps / 16-bit | Оригинальный

MediaInfoXP

GeneralUnique ID : 215293142190707812294566535684628293102 (0xA1F7F370953FC6549B2CA16DCE3225EE)Complete name : H:\Le.Jouet.1976.1080p.BluRay.4xRus.Fre.x264-CRiSC.mkvFormat : MatroskaFormat version : Version 2File size : 13.8 GiBDuration : 1h 33mnOverall bit rate : 21.0 MbpsEncoded date : UTC 2014-06-11 10:30:26Writing application : mkvmerge v5.7.0 ('The Whirlwind') built on Jul 8 2012 20:08:51Writing library : libebml v1.2.3 + libmatroska v1.3.0
VideoID : 1Format : AVCFormat/Info : Advanced Video CodecFormat profile : High@L4.1Format settings, CABAC : YesFormat settings, ReFrames : 4 framesCodec ID : V_MPEG4/ISO/AVCDuration : 1h 33mnBit rate : 19.2 MbpsWidth : 1 798 pixelsHeight : 1 080 pixelsDisplay aspect ratio : 5:3Frame rate mode : ConstantFrame rate : 23.976 fpsColor space : YUVChroma subsampling : 4:2:0Bit depth : 8 bitsScan type : ProgressiveBits/(Pixel*Frame) : 0.413Stream size : 12.3 GiB (89%)Writing library : x264 core 125 r2200 999b753Encoding settings : cabac=1 / ref=4 / deblock=1:-3:-3 / analyse=0x3:0x133 / me=umh / subme=10 / psy=1 / psy_rd=1.00:0.00 / mixed_ref=1 / me_range=32 / chroma_me=1 / trellis=2 / 8x8dct=1 / cqm=0 / deadzone=21,11 / fast_pskip=0 / chroma_qp_offset=-2 / threads=12 / lookahead_threads=2 / sliced_threads=0 / nr=0 / decimate=1 / interlaced=0 / bluray_compat=0 / constrained_intra=0 / bframes=7 / b_pyramid=2 / b_adapt=2 / b_bias=0 / direct=3 / weightb=1 / open_gop=0 / weightp=2 / keyint=250 / keyint_min=24 / scenecut=40 / intra_refresh=0 / rc_lookahead=40 / rc=2pass / mbtree=0 / bitrate=19218 / ratetol=1.0 / qcomp=0.60 / qpmin=0 / qpmax=69 / qpstep=4 / cplxblur=20.0 / qblur=0.5 / vbv_maxrate=50000 / vbv_bufsize=62500 / nal_hrd=none / ip_ratio=1.40 / pb_ratio=1.30 / aq=1:0.60Language : FrenchDefault : YesForced : No
Audio #1ID : 2Format : AC-3Format/Info : Audio Coding 3Mode extension : CM (complete main)Format settings, Endianness : BigCodec ID : A_AC3Duration : 1h 33mnBit rate mode : ConstantBit rate : 448 KbpsChannel(s) : 6 channelsChannel positions : Front: L C R, Side: L R, LFESampling rate : 48.0 KHzCompression mode : LossyStream size : 301 MiB (2%)Title : Многоголосый закадровый, CP-DigitalLanguage : RussianDefault : YesForced : No
Audio #2ID : 3Format : AC-3Format/Info : Audio Coding 3Mode extension : CM (complete main)Format settings, Endianness : BigCodec ID : A_AC3Duration : 1h 33mnBit rate mode : ConstantBit rate : 192 KbpsChannel(s) : 2 channelsChannel positions : Front: L RSampling rate : 48.0 KHzCompression mode : LossyStream size : 129 MiB (1%)Title : ДубляжLanguage : RussianDefault : NoForced : No
Audio #3ID : 4Format : AC-3Format/Info : Audio Coding 3Mode extension : CM (complete main)Format settings, Endianness : BigCodec ID : A_AC3Duration : 1h 33mnBit rate mode : ConstantBit rate : 192 KbpsChannel(s) : 2 channelsChannel positions : Front: L RSampling rate : 48.0 KHzCompression mode : LossyStream size : 129 MiB (1%)Title : Многоголосый закадровый, ОРТLanguage : RussianDefault : NoForced : No
Audio #4ID : 5Format : AC-3Format/Info : Audio Coding 3Mode extension : CM (complete main)Format settings, Endianness : BigCodec ID : A_AC3Duration : 1h 33mnBit rate mode : ConstantBit rate : 192 KbpsChannel(s) : 2 channelsChannel positions : Front: L RSampling rate : 48.0 KHzCompression mode : LossyStream size : 129 MiB (1%)Title : Двухголосый закадровый, Рен-ТВ/ТВЦLanguage : RussianDefault : NoForced : No
Audio #5ID : 6Format : DTSFormat/Info : Digital Theater SystemsMode : 16Format settings, Endianness : BigCodec ID : A_DTSDuration : 1h 33mnBit rate mode : ConstantBit rate : 768 KbpsChannel(s) : 2 channelsChannel positions : Front: L RSampling rate : 48.0 KHzBit depth : 16 bitsCompression mode : LossyStream size : 516 MiB (4%)Language : FrenchDefault : NoForced : No
Text #1ID : 7Format : UTF-8Codec ID : S_TEXT/UTF8Codec ID/Info : UTF-8 Plain TextLanguage : EnglishDefault : NoForced : No
Text #2ID : 8Format : UTF-8Codec ID : S_TEXT/UTF8Codec ID/Info : UTF-8 Plain TextLanguage : FrenchDefault : NoForced : No
Text #3ID : 9Format : UTF-8Codec ID : S_TEXT/UTF8Codec ID/Info : UTF-8 Plain TextLanguage : RussianDefault : NoForced : No
Menu00:00:00.000 : en:00:00:00.00000:05:01.927 : en:00:05:01.92700:10:25.792 : en:00:10:25.79200:15:03.861 : en:00:15:03.86100:23:10.806 : en:00:23:10.80600:30:06.179 : en:00:30:06.17900:35:06.730 : en:00:35:06.73000:43:40.827 : en:00:43:40.82700:48:41.585 : en:00:48:41.58500:54:45.324 : en:00:54:45.32400:59:22.309 : en:00:59:22.30901:08:46.331 : en:01:08:46.33101:15:54.091 : en:01:15:54.09101:21:45.359 : en:01:21:45.35901:26:32.521 : en:01:26:32.52101:32:03.643 : en:01:32:03.643

Скриншот с названием фильма

Скриншоты


_________________
Показать сообщения:    

Текущее время: Сегодня 03:06

Часовой пояс: GMT



Вы не можете начинать темы
Вы не можете отвечать на сообщения
Вы не можете редактировать свои сообщения
Вы не можете удалять свои сообщения
Вы не можете голосовать в опросах
Вы не можете прикреплять файлы к сообщениям
Вы не можете скачивать файлы