Ивановский Торрент трекер
Яндекс.Погода
 

[Цитировать]
HUNTER

Игрок / The Player
Страна: США
Жанр: драма, комедия
Год выпуска: 1992
Продолжительность: 02:04:27
Перевод: Профессиональный (многоголосый закадровый)
Перевод: Профессиональный (двухголосый закадровый) ТВЦ
Перевод: Авторский (одноголосый закадровый) Андрей Гаврилов
Cубтитры: русские, английские
Оригинальная аудиодорожка: английский-Режиссер: Роберт Олтмен / Robert Altman
В ролях: Тим Роббинс, Фред Уорд, Грета Скакки, Питер Галлахер, Винсент Д'Онофрио, Сидни Поллак, Брайон Джеймс, Синтия Стивенсон, Дин Стокуэлл, Пол Хьюитт, Рэндолл Батинкофф, Джереми Пайвен, Фрэнк Бархидт, Майкл Толкин, Стивен Толкин, Натали Стронг, Питер Кох, Памела Бауэн, Стив Аллен, Карен Блэк, Гэри Бьюзи, Роберт Каррадайн, Шер, Джеймс Кобурн, Питер Фальк, Скотт Гленн, Джефф Голдблюм, Анжелика Хьюстон, Джек Леммон, Энди МакДауэлл, Малкольм МакДауэлл, Вупи Голдберг, Ник Нолт, Берт Рейнолдс, Брюс Уиллис, Джулия Робертс, Ричард Грант
Описание: Гриффин Милл, эгоцентричный администратор кинопроизводства, начинает получать анонимные письма со смертельными угрозами. Их автор, отвергнутый сценарист, кроме всего прочего обвиняет Милла во всевозможных грехах. Гриффин Милл, оправившись от замешательства, первым делом пытается разыскать автора писем, и в ходе резкого разговора, сам того не желая, убивает одного из подозреваемых. Детектив Сьюзен Эвери пытается привлечь виновного к суду. Подружка убитого, со своей стороны, проявляет специфический интерес к Гриффину.
IMDb || КиноПоиск-Тип релиза: BDRemux 1080p
Контейнер: MKV
Видео: MPEG-4 AVC Video, 1920x1080 at 23.976 fps, 27251 kbps
Аудио#1: Русский: 48 kHz, AC3, 2.0 ch, 192 kbps
Аудио#2: Русский: 48 kHz, AC3, 2.0 ch, 192 kbps
Аудио#3: Русский: 48 kHz, DTS-HD MA, 5.1 ch, 3883 kbps (DTS Core: 5.1 / 48 kHz / 1509 kbps / 24-bit)
Аудио#4: English: 48 kHz, DTS-HD MA, 2.0 ch, 2060 kbps (DTS Core: 2.0 / 48 kHz / 1509 kbps / 24-bit)
Аудио#5: English: 48 kHz, AC3, 2.0 ch, 192 kbps |комментарии режиссера, сценариста и оператора фильма
Формат субтитров: softsub (SRT)
Сэмпл

Дополнительно

В русских субтитрах присутствует нецензурная лексика.

MediaInfo

General
Unique ID : 243838354831848069274540979114636646613 (0xB7718F151FC299F8ABA169F488FA98D5)
Complete name : The Player.1992.Criterion.BDRemux.rutracker.mkv
Format : Matroska
Format version : Version 2
File size : 29.3 GiB
Duration : 2h 4mn
Overall bit rate mode : Variable
Overall bit rate : 33.8 Mbps
Movie name : Release for RuTracker
Writing application : mkvmerge v5.0.1 ('Es ist Sommer') built on Nov 6 2011 16:23:40
Writing library : libebml v1.2.2 + libmatroska v1.3.0
Video
ID : 1
Format : AVC
Format/Info : Advanced Video Codec
Format profile : High@L4.1
Format settings, CABAC : Yes
Format settings, ReFrames : 4 frames
Codec ID : V_MPEG4/ISO/AVC
Duration : 2h 4mn
Bit rate mode : Variable
Maximum bit rate : 37.0 Mbps
Width : 1 920 pixels
Height : 1 080 pixels
Display aspect ratio : 16:9
Frame rate mode : Constant
Frame rate : 23.976 fps
Color space : YUV
Chroma subsampling : 4:2:0
Bit depth : 8 bits
Scan type : Progressive
Title : The Player.1992.Criterion.BDRemux.rutracker
Language : English
Default : Yes
Forced : No
Audio #1
ID : 2
Format : AC-3
Format/Info : Audio Coding 3
Mode extension : CM (complete main)
Format settings, Endianness : Big
Codec ID : A_AC3
Duration : 2h 4mn
Bit rate mode : Constant
Bit rate : 192 Kbps
Channel(s) : 2 channels
Channel positions : Front: L R
Sampling rate : 48.0 KHz
Bit depth : 16 bits
Compression mode : Lossy
Stream size : 171 MiB (1%)
Title : mvo
Language : Russian
Default : Yes
Forced : No
Audio #2
ID : 3
Format : AC-3
Format/Info : Audio Coding 3
Mode extension : CM (complete main)
Format settings, Endianness : Big
Codec ID : A_AC3
Duration : 2h 4mn
Bit rate mode : Constant
Bit rate : 192 Kbps
Channel(s) : 2 channels
Channel positions : Front: L R
Sampling rate : 48.0 KHz
Bit depth : 16 bits
Compression mode : Lossy
Stream size : 171 MiB (1%)
Title : dvo, телеканал "ТВЦ"
Language : Russian
Default : No
Forced : No
Audio #3
ID : 4
Format : DTS
Format/Info : Digital Theater Systems
Format profile : MA / Core
Mode : 16
Format settings, Endianness : Big
Codec ID : A_DTS
Duration : 2h 4mn
Bit rate mode : Variable
Bit rate : Unknown / 1 509 Kbps
Channel(s) : 6 channels
Channel positions : Front: L C R, Side: L R, LFE
Sampling rate : 48.0 KHz
Bit depth : 24 bits
Compression mode : Lossless / Lossy
Title : avo, А.Гаврилов
Language : Russian
Default : No
Forced : No
Audio #4
ID : 5
Format : DTS
Format/Info : Digital Theater Systems
Format profile : MA / Core
Mode : 16
Format settings, Endianness : Big
Codec ID : A_DTS
Duration : 2h 4mn
Bit rate mode : Variable
Bit rate : Unknown / 1 509 Kbps
Channel(s) : 2 channels
Channel positions : Front: L R
Sampling rate : 48.0 KHz
Bit depth : 24 bits
Compression mode : Lossless / Lossy
Language : English
Default : No
Forced : No
Audio #5
ID : 6
Format : AC-3
Format/Info : Audio Coding 3
Mode extension : CM (complete main)
Format settings, Endianness : Big
Codec ID : A_AC3
Duration : 2h 4mn
Bit rate mode : Constant
Bit rate : 192 Kbps
Channel(s) : 2 channels
Channel positions : Front: L R
Sampling rate : 48.0 KHz
Bit depth : 16 bits
Compression mode : Lossy
Stream size : 171 MiB (1%)
Title : комментарии режиссера, сценариста и оператора фильма
Language : English
Default : No
Forced : No
Text #1
ID : 7
Format : UTF-8
Codec ID : S_TEXT/UTF8
Codec ID/Info : UTF-8 Plain Text
Language : Russian
Default : No
Forced : No
Text #2
ID : 8
Format : UTF-8
Codec ID : S_TEXT/UTF8
Codec ID/Info : UTF-8 Plain Text
Language : English
Default : No
Forced : No
Menu
00:00:00.000 : en:The pitch
00:11:45.830 : en:A-list
00:21:07.015 : en:Power play
00:29:47.327 : en:The writer
00:39:56.227 : en:Studio security
00:47:48.240 : en:"The ice queen"
00:56:17.707 : en:Suspiction
01:00:49.312 : en:Habeas corpus
01:11:20.943 : en:"Too soon"
01:16:45.559 : en:"No stars"
01:23:54.654 : en:"Movies, now more than ever"
01:30:22.083 : en:"Intent to hire"
01:38:17.933 : en:Desert hideout
01:48:37.427 : en:"No witness, no crime"
01:52:22.152 : en:"That's reality"
02:00:35.102 : en:End credits

Скриншоты

New Line vs Criterion
Показать сообщения:    

Текущее время: 23-Окт 12:16

Часовой пояс: UTC - 1


Вы не можете начинать темы
Вы не можете отвечать на сообщения
Вы не можете редактировать свои сообщения
Вы не можете удалять свои сообщения
Вы не можете голосовать в опросах
Вы не можете прикреплять файлы к сообщениям
Вы не можете скачивать файлы

!ВНИМАНИЕ!
Сайт не предоставляет электронные версии произведений, а занимается лишь коллекционированием и каталогизацией ссылок, присылаемых и публикуемых на форуме нашими читателями. Если вы являетесь правообладателем какого-либо представленного материала и не желаете, чтобы ссылка на него находилась в нашем каталоге, свяжитесь с нами, и мы незамедлительно удалим ее. Файлы для обмена на трекере предоставлены пользователями сайта, и администрация не несет ответственности за их содержание. Просьба не заливать файлы, защищенные авторскими правами, а также файлы нелегального содержания!