Важное объявление!
У Нас Все раздачи мультитрекерные, при нуле пиров в релизах, можете смело вставать на закачку!
 
Автор Сообщение

neon10_10

Стаж:
6 лет 3 месяца
Сообщений:
63

Репутация: 49

[+] [-]
Вне форума [Профиль] [ЛС]

Игра / The Game
-Год выпуска: 1997
Страна: США
Слоган: «Ты готов сыграть?»
Жанр: триллер, детектив, приключения
Продолжительность: 02:08:38
Перевод: Профессиональный (полное дублирование)
Субтитры: Russian (R5), English, English (Commentary)-Режиссер: Дэвид Финчер / David Fincher
Сценарий: Джон Д. Бранкато / John D. Brancato, Майкл Феррис / Michael Ferris
Продюсер: Чен Чаффин / Ceбn Chaffin, Стив Голин / Steve Golin, Джон Д. Бранкато / John D. Brancato, Майкл Феррис / Michael Ferris, Джонатан Мостоу / Jonathan Mostow
Оператор: Харрис Савидес / Harris Savides
Композитор: Говард Шор / Howard Shore-В ролях: Майкл Дуглас (Nicholas Van Orton), Шон Пенн (Conrad Van Orton), Дебора Кара Ангер (Christine), Джеймс Ребхорн (Jim Feingold), Питер Донат (Samuel Sutherland), Кэррол Бейкер (Ilsa), Анна Катарина (Elizabeth), Армин Мюллер-Шталь (Anson Baer), Чарльз Мартине (Nicholas' Father), Скотт Хантер МакГуайр (Young Nicholas), Флорентин Макану (Nicholas' Mother), Элизабет Деннехи (Maria)-Роли дублировали: Владимир Еремин (Nicholas Van Orton), Всеволод Кузнецов (Conrad Van Orton), Ольга Плетнёва (Christine), Владимир Антоник (Jim Feingold), Рогволд Суховерко (Samuel Sutherland), Александра Назарова (Ilsa), Ольга Голованова (Elizabeth; Christine's Roomate Amy), Елена Соловьева (Maria), Виктор Петров (Daniel Schorr), Людмила Шувалова (Cynthia, CRS Receptionist), Олег Куценко (James The Bartender), Дальвин Щербаков (New Member Ted)-Бюджет: $50 000 000
Сборы в США: $48 323 648
Сборы в мире: $109 423 648-Мировая премьера: 12 сентября 1997
Релиз на Blu-ray: 17 августа 2010, «Юниверсал Пикчерс Рус»-Описание: Николас Ван Ортон - само воплощение успеха. Он преуспевает, он невозмутим и спокоен, привык держать любую ситуацию под контролем. На день рождения Николас получает необычный подарок - билет для участия в «Игре».
Ему обещают, что игра вернет яркие чувства, позволит ощутить вкус и остроту жизни. Вступив в игру, Николас начинает осознавать, что это игра всерьез, игра не на жизнь, а на смерть.-Рейтинг:

Топ250: 58
IMDb: 7.70 (117 743)
MPAA: R - Лицам до 17 лет обязательно присутствие взрослого-Качество: BDRip 720p
Формат: MKV
Видео кодек: x264
Аудио кодек: DTS, AC3
Видео: 1280x544 (2.35:1); 4550 Kbps; 23,976 fps; 0,273 bpp-
  • DTS; 48 kHz, 755 Kbps; CBR; 6 ch; 24 bit |Профессиональный многоголосый закадровый, Blu-ray CEE|
  • DTS; 48 kHz, 1510 Kbps; CBR; 6 ch; 24 bit |Авторский одноголосый закадровый, А.Гаврилов|
  • AC3; 48 kHz, 384 Kbps; CBR; 6 ch |Дубляж, R5|
  • AC3; 48 kHz, 384 Kbps; CBR; 6 ch |Профессиональный многоголосый закадровый, Liga HQ|
  • DTS; 48 kHz, 755 Kbps; CBR; 6 ch; 24 bit |Авторский одноголосый закадровый, Ю.Живов|
  • English; DTS; 48 kHz, 1510 Kbps; CBR; 6 ch; 24 bit
  • English; AC3; 48 kHz, 128 Kbps; CBR; 2 ch |Commentary|
-

Знаете ли Вы, что...

  • Спайк Джонс сыграл камео медработника, светящего в глаз Николаса в конце фильма.
  • Дэвид Финчер сообщил в интервью английскому журналу Empire, что в каждой сцене фильма присутствует телячий рубец (англ. haggis). Это связано с прозвищем оператора фильма Савидеса Харриса — Haggis.
  • Когда Николас входит в комнату отеля Nikko, в телевизоре можно увидеть кадры из порно-фильма с участием известного порно-актёра Тони Тадеши.
  • Джоди Фостер, сыгравшая главную роль в фильме Финчера «Комната страха», планировала принять участие в съёмках «Игры», но не смогла из-за плотного рабочего графика.
  • Сюжет фильма основан на реально существующей ролевой игре, популярной в США. Идея этой игры проистекает из фильма 1980 года «Полночное безумие» (Midnight Madness). В «Игре» также можно найти реминисценции из романа Джона Фаулза «Волхв».
  • Кроме «настоящей» расшифровки аббревиатуры CRS (Consumer Recreation Services), в фильме ещё встречаются и другие. Это карточка на приборной панели мчащегося такси, в котором едет Николас (California Regal Sedans) и надпись на фургоне, припаркованном у дома Кристин, откуда потом вооруженные люди открывают стрельбу по зданию (Cable Repair Specialists).
  • Главный герой носит золотые часы Cartier Tank с боковой секундной стрелкой.

MediaInfo

General
Unique ID : 190768752700240236675805097072289199634 (0x8F84B9AF1681C571964506EE73AD3612)
Complete name : The.Game.1997.720p.BluRay.x264.mkv
Format : Matroska
Format version : Version 2
File size : 8.98 GiB
Duration : 2h 8mn
Overall bit rate : 9 992 Kbps
Movie name : The Game (1997) - Release for HDCLUB by -= Andrew Placid =-
Encoded date : UTC 2012-04-12 15:39:45
Writing application : mkvmerge v5.5.0 ('Healer') built on Apr 6 2012 21:43:24
Writing library : libebml v1.2.3 + libmatroska v1.3.0
Video
ID : 1
Format : AVC
Format/Info : Advanced Video Codec
Format profile : High@L4.1
Format settings, CABAC : Yes
Format settings, ReFrames : 10 frames
Codec ID : V_MPEG4/ISO/AVC
Duration : 2h 8mn
Bit rate : 4 550 Kbps
Width : 1 280 pixels
Height : 544 pixels
Display aspect ratio : 2.35:1
Frame rate : 23.976 fps
Color space : YUV
Chroma subsampling : 4:2:0
Bit depth : 8 bits
Scan type : Progressive
Bits/(Pixel*Frame) : 0.273
Stream size : 3.93 GiB (44%)
Title : Release for HDCLUB by -= Andrew Placid =-
Writing library : x264 core 104 r1713kMod c276662
Encoding settings : cabac=1 / ref=10 / deblock=1:-3:-3 / analyse=0x3:0x113 / me=esa / subme=10 / psy=1 / psy_rd=1.00:0.00 / mixed_ref=1 / me_range=24 / chroma_me=1 / trellis=2 / 8x8dct=1 / cqm=0 / deadzone=21,11 / fast_pskip=0 / chroma_qp_offset=-2 / threads=6 / sliced_threads=0 / nr=0 / decimate=1 / interlaced=0 / constrained_intra=0 / bframes=10 / b_pyramid=2 / b_adapt=2 / b_bias=0 / direct=3 / weightb=1 / open_gop=0 / weightp=2 / keyint=250 / keyint_min=25 / scenecut=40 / intra_refresh=0 / rc=2pass / mbtree=0 / bitrate=4550 / ratetol=1.0 / qcomp=0.60 / qpmin=10 / qpmax=51 / qpstep=4 / cplxblur=20.0 / qblur=0.5 / ip_ratio=1.40 / pb_ratio=1.30 / aq=1:0.90
Language : English
Default : No
Forced : No
Audio #1
ID : 2
Format : DTS
Format/Info : Digital Theater Systems
Codec ID : A_DTS
Duration : 2h 8mn
Bit rate mode : Constant
Bit rate : 755 Kbps
Channel(s) : 6 channels
Channel positions : Front: L C R, Side: L R, LFE
Sampling rate : 48.0 KHz
Bit depth : 24 bits
Compression mode : Lossy
Stream size : 694 MiB (8%)
Title : DTS 5.1ch 768 kbps [Многоголосый, Blu-Ray]
Language : Russian
Default : Yes
Forced : No
Audio #2
ID : 3
Format : DTS
Format/Info : Digital Theater Systems
Codec ID : A_DTS
Duration : 2h 8mn
Bit rate mode : Constant
Bit rate : 1 510 Kbps
Channel(s) : 6 channels
Channel positions : Front: L C R, Side: L R, LFE
Sampling rate : 48.0 KHz
Bit depth : 24 bits
Compression mode : Lossy
Stream size : 1.36 GiB (15%)
Title : DTS 5.1ch 1536 kbps [Одноголосый, А.Гаврилов]
Language : Russian
Default : No
Forced : No
Audio #3
ID : 4
Format : AC-3
Format/Info : Audio Coding 3
Mode extension : CM (complete main)
Codec ID : A_AC3
Duration : 2h 8mn
Bit rate mode : Constant
Bit rate : 384 Kbps
Channel(s) : 6 channels
Channel positions : Front: L C R, Side: L R, LFE
Sampling rate : 48.0 KHz
Bit depth : 16 bits
Compression mode : Lossy
Stream size : 353 MiB (4%)
Title : AC3 5.1ch 384 kbps [Дубляж, R5]
Language : Russian
Default : No
Forced : No
Audio #4
ID : 5
Format : AC-3
Format/Info : Audio Coding 3
Mode extension : CM (complete main)
Codec ID : A_AC3
Duration : 2h 8mn
Bit rate mode : Constant
Bit rate : 384 Kbps
Channel(s) : 6 channels
Channel positions : Front: L C R, Side: L R, LFE
Sampling rate : 48.0 KHz
Bit depth : 16 bits
Compression mode : Lossy
Stream size : 353 MiB (4%)
Title : AC3 5.1ch 384 kbps [Liga HQ]
Language : Russian
Default : No
Forced : No
Audio #5
ID : 6
Format : DTS
Format/Info : Digital Theater Systems
Codec ID : A_DTS
Duration : 2h 8mn
Bit rate mode : Constant
Bit rate : 755 Kbps
Channel(s) : 6 channels
Channel positions : Front: L C R, Side: L R, LFE
Sampling rate : 48.0 KHz
Bit depth : 24 bits
Compression mode : Lossy
Stream size : 694 MiB (8%)
Title : DTS 5.1 768 kbps 48kHz [Юрий Живов]
Language : Russian
Default : No
Forced : No
Audio #6
ID : 7
Format : DTS
Format/Info : Digital Theater Systems
Codec ID : A_DTS
Duration : 2h 8mn
Bit rate mode : Constant
Bit rate : 1 510 Kbps
Channel(s) : 6 channels
Channel positions : Front: L C R, Side: L R, LFE
Sampling rate : 48.0 KHz
Bit depth : 24 bits
Compression mode : Lossy
Stream size : 1.36 GiB (15%)
Title : DTS 5.1ch 1536 kbps [Original]
Language : English
Default : No
Forced : No
Audio #7
ID : 8
Format : AC-3
Format/Info : Audio Coding 3
Mode extension : CM (complete main)
Codec ID : A_AC3
Duration : 2h 8mn
Bit rate mode : Constant
Bit rate : 128 Kbps
Channel(s) : 2 channels
Channel positions : Front: L R
Sampling rate : 48.0 KHz
Bit depth : 16 bits
Compression mode : Lossy
Stream size : 118 MiB (1%)
Title : AC3 2.0ch 128 kbps [Commentary]
Language : English
Default : No
Forced : No
Text #1
ID : 9
Format : UTF-8
Codec ID : S_TEXT/UTF8
Codec ID/Info : UTF-8 Plain Text
Language : Russian
Default : No
Forced : No
Text #2
ID : 10
Format : UTF-8
Codec ID : S_TEXT/UTF8
Codec ID/Info : UTF-8 Plain Text
Title : SDH
Language : English
Default : No
Forced : No
Text #3
ID : 11
Format : ASS
Codec ID : S_TEXT/ASS
Codec ID/Info : Advanced Sub Station Alpha
Compression mode : Lossless
Title : Commentary
Language : English
Default : No
Forced : No
Menu
00:00:00.000 : en:Opening Logos
00:02:37.782 : en:Happy Birthday
00:09:13.094 : en:Memories
00:13:26.722 : en:Initial Contact - CRS
00:20:37.903 : en:Let the Game Begin
00:30:32.664 : en:The Briefcase
00:37:03.638 : en:Accidents Happen
00:43:27.313 : en:Mysterious Woman
00:53:41.176 : en:Housekeeping
00:58:56.699 : en:Frustration
01:04:41.752 : en:It's a Game
01:12:34.224 : en:Panic
01:18:40.757 : en:Endless Pursuit
01:24:25.602 : en:Escape
01:33:40.740 : en:Buried in Mexico
01:42:08.455 : en:Help From a Friend
01:46:38.225 : en:Make the Connection
01:52:17.772 : en:Happy Birthday, Nicky
02:03:28.234 : en:Closing Credits

Скриншоты

Дополнительно

Цитата:

Сохранены и подписаны оригинальные чаптеры как на Blu-ray.
Дорожка №2 получена наложением чистого голоса на центр декодированного DTS-HD MA.
Раздача От:

_________________
dchub://neonhub37.no-ip.info:411
Показать сообщения:    

Текущее время: Сегодня 18:04

Часовой пояс: GMT



Вы не можете начинать темы
Вы не можете отвечать на сообщения
Вы не можете редактировать свои сообщения
Вы не можете удалять свои сообщения
Вы не можете голосовать в опросах
Вы не можете прикреплять файлы к сообщениям
Вы не можете скачивать файлы