Важное объявление!
У Нас Все раздачи мультитрекерные, при нуле пиров в релизах, можете смело вставать на закачку!
 
Автор Сообщение

HUNTER

Стаж:
4 года 10 месяцев
Сообщений:
65531

Репутация: 101

[+] [-]
Вне форума [Профиль] [ЛС]

No Game No Life
-Страна: Япония
Год выпуска: 2014 г.
Жанр: приключения
Тип: TV
Продолжительность: >12 эп., 25 мин.
Режиссер: Исидзука Ацуко
Студия: Madhouse Studios-Перевод:
Дмитрий Седоченко-Описание: Главные герои – Сора и Широ, брат и сестра, NEET’ы и хикикомори, гениальный геймеры, чья выдающаяся биография стала прообразом разнообразных городских легенд в Интернете. Парочка настолько упоротая, что считает реальный мир просто «херовой игрой». В один прекрасный день парнишка под ником «Бог» призывает их в параллельный мир, где, согласно заветам Бога, строго-настрого запрещены любые войны. Вместо этого все конфликты (включая и территориальные споры) решаются посредством игр. Человечество здесь медленно, но верно сдаёт свои позиции: прочие расы загнали людей в единственный оставшийся город. И теперь родственничкам-задротам представляется шанс стать взаправдашними спасителями человечества.-Качество: HDTVRip
Тип релиза: Без хардсаба
Формат видео: MP4
Релиз/Автор рипа: Leopard-Raws
Видео: AVC, 1280x720, 2467kbps, 23,976fps, 8bits
Аудио JAP: AAC, 192kbps, 48.0Hz, 2ch
Субтитры RUS: ass, внешние-

Подробные тех. данные

ОбщееФормат : MPEG-4Профиль формата : Base MediaИдентификатор кодека : isomРазмер файла : 457 МбайтПродолжительность : 23 м.Режим общего битрейта : ПеременныйОбщий поток : 2662 Кбит/секДата кодирования : UTC 2014-04-09 17:51:43Дата пометки : UTC 2014-04-09 17:51:43
ВидеоИдентификатор : 1Формат : AVCФормат/Информация : Advanced Video CodecПрофиль формата : High@L4.1Параметр CABAC формата : ДаПараметр ReFrames формата : 4 кадраИдентификатор кодека : avc1Идентификатор кодека/Информация : Advanced Video CodingПродолжительность : 23 м.Битрейт : 2467 Кбит/секМаксимальный битрейт : 19,1 Мбит/секШирина : 1280 пикселейВысота : 720 пикселейСоотношение сторон : 16:9Режим частоты кадров : ПостоянныйЧастота кадров : 23,976 кадра/секЦветовое пространство : YUVСубдискретизация насыщенности : 4:2:0Битовая глубина : 8 битТип развёртки : ПрогрессивнаяБит/(Пиксели*Кадры) : 0.112Размер потока : 423 Мбайт (93%)Заголовок : 264:fps=23.976@GPAC0.5.1-DEV-rev4283Библиотека кодирования : x264 core 129 r2245+729M 1a52e03Настройки программы : cabac=1 / ref=4 / deblock=1:1:-1 / analyse=0x3:0x113 / me=umh / subme=9 / psy=1 / fade_compensate=0.00 / psy_rd=1.00:0.00 / mixed_ref=1 / me_range=24 / chroma_me=1 / trellis=2 / 8x8dct=1 / cqm=0 / deadzone=21,11 / fast_pskip=1 / chroma_qp_offset=-2 / threads=8 / lookahead_threads=1 / sliced_threads=0 / nr=0 / decimate=1 / interlaced=0 / bluray_compat=0 / constrained_intra=0 / fgo=0 / bframes=9 / b_pyramid=2 / b_adapt=2 / b_bias=0 / direct=1 / weightb=1 / open_gop=0 / weightp=2 / keyint=240 / keyint_min=24 / scenecut=40 / intra_refresh=0 / rc=crf / mbtree=0 / crf=19.0 / qcomp=0.72 / qpmin=0 / qpmax=69 / qpstep=4 / ip_ratio=1.40 / pb_ratio=1.30 / aq=1:0.85Дата кодирования : UTC 2014-04-09 17:51:43Дата пометки : UTC 2014-04-09 17:51:48Основные цвета : BT.709Характеристики трансфера : BT.709Коэффициенты матрицы : BT.709
АудиоИдентификатор : 2Формат : AACФормат/Информация : Advanced Audio CodecПрофиль формата : LCИдентификатор кодека : 40Продолжительность : 23 м.Вид битрейта : ПеременныйБитрейт : 192 Кбит/секМаксимальный битрейт : 237 Кбит/секКаналы : 2 каналаРасположение каналов : Front: L RЧастота : 48,0 КГцМетод сжатия : С потерямиРазмер потока : 32,8 Мбайт (7%)Язык : JapaneseДата кодирования : UTC 2014-04-09 16:33:32Дата пометки : UTC 2014-04-09 17:51:48

Список эпизодов

Серия 1:

Отличия

-Ches-

Скриншоты


_________________
Показать сообщения:    

Текущее время: Сегодня 11:11

Часовой пояс: GMT



Вы не можете начинать темы
Вы не можете отвечать на сообщения
Вы не можете редактировать свои сообщения
Вы не можете удалять свои сообщения
Вы не можете голосовать в опросах
Вы не можете прикреплять файлы к сообщениям
Вы не можете скачивать файлы