Игра на выживание / No Game No Life (Исидзука Ацуко) [TV] [2 из 12] [без хардсаба] [RUS(ext), JAP+SUB] [2014 г., комедия, фэнтези, пародия, BDRip] [720p] :: Ивановский Торрент трекер
Важное объявление!
У Нас Все раздачи мультитрекерные, при нуле пиров в релизах, можете смело вставать на закачку!
Статистика раздачи
Размер:     |    Зарегистрирован:     |    Скачан:     |   
Нет
 
     
 
 
Автор Сообщение

HUNTER

Стаж:
4 года 11 месяцев
Сообщений:
66077

Репутация: 101

[+] [-]
Вне форума [Профиль] [ЛС]

-
Год выпуска: 2014
Страна: Япония
Жанр: комедия, фэнтези, пародия
Продолжительность: ТВ-сериал, 12 эп. по 24 мин.
Выпуск: c 09.04.2014 по 25.06.2014-Перевод:

  • русские субтитры от GMC (полные/вспомогательные)
    переводчик: Elven_tankman, редакторы: Koushin, Nerevar, оформление: Surokune
    -Режиссер: Исидзука Ацуко
    Студия: Madhouse Studios-Описание:
    18-летний Сора и 11-летняя Сиро – сводные брат и сестра, законченные затворники и игроманы. Когда встретились два одиночества, родился несокрушимый союз «Пустое место», наводящий ужас на всех восточных геймеров. Хотя на публике ребят трясет и корежит не по-детски, в Сети малышка Сиро – гений логики, а Сора – монстр психологии, которого нельзя провести. Увы, достойные противники вскоре кончились, потому Сиро так обрадовалась шахматной партии, где с первых ходов был виден почерк мастера. Выиграв на пределе сил, герои получили интересное предложение – переехать в иной мир, где их таланты поймут и оценят!
    А почему бы и нет? В нашем мире Сору и Сиро ничто не держит, а веселым миром Дисборд правят Десять заповедей, суть которых сводится к одному: никакого насилия и жестокости, все разногласия решаются в честной игре. В игровом мире живут 16 рас, из которых человеческая считается самой слабой и бесталанной. Но ведь чудо-ребята уже здесь, в их руках корона Элькии – единственной страны людей, и мы верим, что этим успехи Соры и Сиро не ограничатся. Посланцам Земли надо всего-то объединить все расы Дисборда – и тогда они смогут бросить вызов богу Тету – своему, кстати, старому знакомому. Только, если подумать, стоит ли это делать?
    © Hollow, World Art
    Дословно название сериала, написанное по-английски, означает «без игры жизни нет». Другой вариант перевода - «играть, чтобы жить».-Информационные ссылки: AniDB || World Art || MAL-Качество: BDRip
    Энкод: Winter - RG Pantheon
    Тип видео: без хардсаба, без линковки
    Формат: mkv
    Видео: x264 (Hi10p), 1280x720, ~4400 Kbps, 23.976 fps
    Аудио JAP: Vorbis, 48000Hz, ~256 Kbps, 2ch
    Аудио RUS 1-2: AC3, 48000Hz, ~192 Kbps, 2ch (внешними файлами)
    Аудио RUS 3-4: AC3, 48000Hz, ~192 Kbps, 2ch (внешними файлами)-

    Список озвучек в раздаче
  • двухголосая (муж./жен.) от JAM & Trina_D (AniDub)
  • двухголосая (муж./жен.) от GreyMoon & NesTea (SHIZA)
  • двухголосая (муж./жен.) от loster01 & Emeri (LE-Production)
  • двухголосая (муж./жен.) от ProjectmaN & MezIdA (Anifilm)
    Список эпизодов
    01. Beginner
    02. Challenger
    СкриншотыОтличия от других раздачПодробные тех. данные
    Общее
    Уникальный идентификатор : 236102818071991083130273356151957385079 (0xB19FBFACA1CDA2FF810B425E143E6F77)
    Полное имя : Z:\Anime\720p\No Game No Life [BD] [720p]\[Winter] No Game No Life 01 [BDrip 1280x720 x264 Vorbis].mkv
    Формат : Matroska
    Версия формата : Version 2
    Размер файла : 825 Мбайт
    Продолжительность : 24 м.
    Режим общего битрейта : Переменный
    Общий поток : 4798 Кбит/сек
    Дата кодирования : UTC 2014-07-03 17:45:56
    Программа кодирования : mkvmerge v2.9.8 ('C'est le bon') built on Aug 13 2009 12:49:06
    Библиотека кодирования : libebml v0.7.7 + libmatroska v0.8.1
    Видео
    Идентификатор : 1
    Формат : AVC
    Формат/Информация : Advanced Video Codec
    Профиль формата : High 10@L4.1
    Параметр CABAC формата : Да
    Параметр ReFrames формата : 9 кадров
    Идентификатор кодека : V_MPEG4/ISO/AVC
    Продолжительность : 24 м.
    Битрейт : 4447 Кбит/сек
    Ширина : 1280 пикселей
    Высота : 720 пикселей
    Соотношение сторон : 16:9
    Режим частоты кадров : Постоянный
    Частота кадров : 23,976 кадра/сек
    Цветовое пространство : YUV
    Субдискретизация насыщенности : 4:2:0
    Битовая глубина : 10 бит
    Тип развёртки : Прогрессивная
    Бит/(Пиксели*Кадры) : 0.201
    Размер потока : 764 Мбайт (93%)
    Библиотека кодирования : x264 core 132 r2309 3b1f1f7
    Настройки программы : cabac=1 / ref=9 / deblock=1:-2:-2 / analyse=0x3:0x133 / me=umh / subme=9 / psy=1 / psy_rd=0.90:0.00 / mixed_ref=1 / me_range=24 / chroma_me=1 / trellis=2 / 8x8dct=1 / cqm=0 / deadzone=21,11 / fast_pskip=1 / chroma_qp_offset=-2 / threads=12 / lookahead_threads=2 / sliced_threads=0 / nr=0 / decimate=0 / interlaced=0 / bluray_compat=0 / constrained_intra=0 / bframes=8 / b_pyramid=2 / b_adapt=2 / b_bias=0 / direct=1 / weightb=1 / open_gop=0 / weightp=2 / keyint=250 / keyint_min=23 / scenecut=40 / intra_refresh=0 / rc=crf / mbtree=0 / crf=16.0 / qcomp=0.70 / qpmin=9 / qpmax=40 / qpstep=4 / ip_ratio=1.40 / pb_ratio=1.30 / aq=1:0.90
    Default : Нет
    Forced : Нет
    Аудио
    Идентификатор : 2
    Формат : Vorbis
    Параметр Floor формата : 1
    Идентификатор кодека : A_VORBIS
    Продолжительность : 24 м.
    Вид битрейта : Переменный
    Битрейт : 256 Кбит/сек
    Каналы : 2 канала
    Частота : 48,0 КГц
    Метод сжатия : С потерями
    Размер потока : 44,0 Мбайт (5%)
    Библиотека кодирования : libVorbis (Schaufenugget) (20101101 (Schaufenugget))
    Язык : Japanese
    Default : Да
    Forced : Нет
    - -Информация о релизе
  • Выбор видео, перевода, озвучки, а также типа сборки материала осуществляется релизером и не подлежит обсуждению. Если вы считаете, что раздаваемый материал противоречит правилам раздела "Аниме" rutracker.org, сообщите об этом одному из модераторов раздела.
  • В случае появления нового материала или же лучшего по качеству материала релизер оставляет за собой право обновить раздачу. В этом случае вам необходимо ознакомиться с изменениями (добавлениями) и перекачать торрент.
  • Данный релиз предназначен для просмотра на ПК. Воспроизведение на иных проигрывателях не гарантируется. Для просмотра рекомендуется Media Player Classic с установленным пакетом кодеков K-Lite.
  • Данный релиз содержит 10-битное видео (Hi10p). Для корректного воспроизведения обязательно используйте кодеки, поддерживающие 10-битное видео.
    Обсудить частные случаи проблем с воспроизведением и получить дополнительную информацию можно здесь.

  • Данный релиз предназначен для просмотра с внешними субтитрами и внешними звуковыми дорожками.
  • Для просмотра с внешней звуковой дорожкой нужно:
    перекинуть файлы .mka из папки "RUS Sound [<автор(ы) озвучки>]" в одну папку с видео и переключить звуковую дорожку в плеере при просмотре. Как это сделать в разных плеерах подробно описано здесь.

  • Для просмотра с субтитрами нужно:
    перекинуть файлы .ass из папки "RUS Subtitles [<автор(ы) перевода>]" в одну папку с видео - плеер подгрузит их автоматически при открытии видео.

  • Если у вас возникли проблемы с просмотром, не связанные с описанным выше, сообщите о них автору раздачи посредством сообщения в теме или ЛС Aglenn.

  • _________________
    Показать сообщения:    

    Текущее время: Сегодня 08:57

    Часовой пояс: GMT



    Вы не можете начинать темы
    Вы не можете отвечать на сообщения
    Вы не можете редактировать свои сообщения
    Вы не можете удалять свои сообщения
    Вы не можете голосовать в опросах
    Вы не можете прикреплять файлы к сообщениям
    Вы не можете скачивать файлы