Важное объявление!
У Нас Все раздачи мультитрекерные, при нуле пиров в релизах, можете смело вставать на закачку!
 
Автор Сообщение

HUNTER

Стаж:
4 года 8 месяцев
Сообщений:
62050

Репутация: 101

[+] [-]
Вне форума [Профиль] [ЛС]


Иван Царевич и Серый Волк 3«-»-
Год выхода: 2016
Страна: Россия
Жанр: мультфильм, приключения, семейный
Продолжительность: 01:14:01
Перевод: Не требуется
Субтитры: Отсутствуют
Режиссер: Дарина Шмидт
В ролях: Никита Ефремов, Иван Охлобыстин, Михаил Боярский
О фильме: Царь Тридевятого царства, в честь своего 150-летия решил, что с него хватит — пора на заслуженный отдых. «Я устал. Я ухожу», — заявил самодержец и с удочкой и ведёрком удалился в деревенскую глушь. А оберегать государство остались Иван с Серым Волком. Вот только Василиса, жена Ивана, заявила, что свадебного путешествия у неё не было, заграницу она не видела, «постить» в инстаграм решительно нечего и вообще. Иван спорить не стал, а вместе с Василисой, Котом — ученым и Серым Волком, погрузился на ковер-самолет и отправился в путь. А за главного в стране герои оставили самое обычное огородное пугало… Но пока компания шаталась по Миланам и Парижам, Пугало ожило и начало наводить свои порядки в Тридевятом царстве…
Качество: WEB DLRip-AVC
Формат: mkv
Видео кодек: AVC
Аудио кодек: AC3
Видео: 1024x576, 25.000 fps, 1993 Кбит/с
Аудио: 384 kb/s, 2 ch, 48.0 KHz

MediaInfo

Код: copyText_writeLink('this.parentNode.parentNode.nextSibling.nextSibling');
Код:
Общее
Уникальный идентификатор                 : 232602170475114857166655210048483375038 (0xAEFD8C6C1E31469CBFC8665CCB9637BE)
Полное имя                               : D:\Загрузки\Ivan.Carevich.I.Serij.Volk.3.2015.2015.x264.WEB-DLRip.(AVC).ExKinoRay.mkv
Формат                                   : Matroska
Версия формата                           : Version 2
Размер файла                             : 1,23 Гбайт
Продолжительность                        : 1 ч. 14 м.
Общий поток                              : 2377 Кбит/сек
Название фильма                          : Иван Царевич и Серый Волк 3.2015.Rip by: ollan
Дата кодирования                         : UTC 2016-02-01 19:22:21
Программа кодирования                    : mkvmerge v5.6.0 ('Kenya Kane') built on May 27 2012 16:44:04
Библиотека кодирования                   : libebml v1.2.3 + libmatroska v1.3.0
Видео
Идентификатор                            : 1
Формат                                   : AVC
Формат/Информация                        : Advanced Video Codec
Профиль формата                          : High@L4.1
Параметр CABAC формата                   : Да
Параметр ReFrames формата                : 10 кадров
Идентификатор кодека                     : V_MPEG4/ISO/AVC
Продолжительность                        : 1 ч. 14 м.
Битрейт                                  : 1993 Кбит/сек
Ширина                                   : 1024 пикселя
Высота                                   : 576 пикселей
Соотношение сторон                       : 16:9
Режим частоты кадров                     : Постоянный
Частота кадров                           : 25,000 кадров/сек
Цветовое пространство                    : YUV
Субдискретизация насыщенности            : 4:2:0
Битовая глубина                          : 8 бит
Тип развёртки                            : Прогрессивная
Бит/(Пиксели*Кадры)                      : 0.135
Размер потока                            : 1,01 Гбайт (82%)
Библиотека кодирования                   : x264 core 125 r2200 999b753
Настройки программы                      : cabac=1 / ref=10 / deblock=1:-3:-3 / analyse=0x3:0x133 / me=umh / subme=11 / psy=1 / psy_rd=1.00:0.07 / mixed_ref=1 / me_range=48 / chroma_me=1 / trellis=2 / 8x8dct=1 / cqm=0 / deadzone=21,11 / fast_pskip=0 / chroma_qp_offset=-3 / threads=12 / lookahead_threads=2 / sliced_threads=0 / nr=0 / decimate=0 / interlaced=0 / bluray_compat=0 / constrained_intra=0 / bframes=9 / b_pyramid=2 / b_adapt=2 / b_bias=0 / direct=3 / weightb=1 / open_gop=0 / weightp=2 / keyint=250 / keyint_min=25 / scenecut=40 / intra_refresh=0 / rc=2pass / mbtree=0 / bitrate=1993 / ratetol=1.0 / qcomp=0.60 / qpmin=0 / qpmax=69 / qpstep=4 / cplxblur=20.0 / qblur=0.5 / ip_ratio=1.40 / pb_ratio=1.30 / aq=1:1.00
Язык                                     : Russian
Default                                  : Да
Forced                                   : Нет
Аудио
Идентификатор                            : 2
Формат                                   : AC-3
Формат/Информация                        : Audio Coding 3
Расширение режима                        : CM (complete main)
Параметр Endianness формата              : Big
Идентификатор кодека                     : A_AC3
Продолжительность                        : 1 ч. 14 м.
Вид битрейта                             : Постоянный
Битрейт                                  : 384 Кбит/сек
Каналы                                   : 2 канала
Расположение каналов                     : Front: L R
Частота                                  : 48,0 КГц
Битовая глубина                          : 16 бит
Метод сжатия                             : С потерями
Размер потока                            : 203 Мбайт (16%)
Язык                                     : Russian
Default                                  : Да
Forced                                   : Нет

Рейтинг

Доп. информация

Сборы в России: $9 409 124
Дата мировой премьеры: 1 января 2016, «Наше Кино»

Скриншоты


_________________
Показать сообщения:    

Текущее время: Сегодня 13:05

Часовой пояс: GMT



Вы не можете начинать темы
Вы не можете отвечать на сообщения
Вы не можете редактировать свои сообщения
Вы не можете удалять свои сообщения
Вы не можете голосовать в опросах
Вы не можете прикреплять файлы к сообщениям
Вы не можете скачивать файлы
Наши партнеры: интернет магазин Ивановского трикотажа textilla.ru