Зятек / Son in Law (Стив Рэш / Steve Rash) [1993, США, комедия, DVD5 (Custom)] MVO (Видеосервис) + MVO (1 канал) + AVO (В.Дохалов) + AVO (А.Кашкин) + Sub Rus + Original Eng :: Ивановский Торрент трекер
Важное объявление!
У Нас Все раздачи мультитрекерные, при нуле пиров в релизах, можете смело вставать на закачку!
Статистика раздачи
Размер:     |    Зарегистрирован:     |    Скачан:     |   
Нет
 
     
 
 
Автор Сообщение

HUNTER

Стаж:
4 года 11 месяцев
Сообщений:
66116

Репутация: 101

[+] [-]
Вне форума [Профиль] [ЛС]

Зятек / Son in Law
Страна: США
Студия: Hollywood Pictures
Жанр: комедия
Год выпуска: 1993
Продолжительность: 01:35:08
Перевод: Профессиональный (многоголосый закадровый) Видеосервис
Перевод 2: Профессиональный (многоголосый закадровый) 1 канал
Перевод 3: Авторский (одноголосый закадровый) В.Дохалов
Перевод 4: Авторский (одноголосый закадровый) А.Кашкин
Перевод 5: Авторский (одноголосый закадровый) ???
Cубтитры: русские
Оригинальная аудиодорожка: английский
Режиссер: Стив Рэш / Steve Rash
В ролях: Поли Шор ,Карла Гуджино ,Лейн Смит ,Синди Пикетт ,Мейсон Эдамс ,Патрик Ренна ,Деннис Бёркли ,Тиффани Тиссен ,Дэн Готье ,Риа Павиа
Описание:
Худший кошмар всякой тещи? Определенно, ее зять. Но даже в страшном сне мадам Уоррен не предполагала, насколько худо все обернется, пока впервые не увидела жениха своей дочери Ребекки.
Существо, прибывшее в дом Уорнеров на День Благодарения и представленное дочкой, как ее жених Кроул, мгновенно произвело на потенциальных родичей неизгладимое впечатление. Средоточие дурных манер, дикости, бестактности и полной непредсказуемости — Кроул продемонстрировал все эти лучшие черты своего характера в первые же минуты своего визита. А ведь это только начало! И невозможно представить, какой номер выкинет товарищ зять в следующую секунду!
Доп. информация: За основу взят данный релиз : http://rutracker.org/forum/viewtopic.php?t=571109 авторенный уважаемым DENnv.
К релизу было много нареканий о невозможности записать на диск и прочее. Структура диска при сборке была немного нарушена и программы разборки и правки типа DVDShrink,PgcDemux,DvdReMake Pro "падали" пытаясь открыть данный диск.
Но то что один японец сумел "собрать", другой китаец всегда сумеет "разобрать"...
Фильм собран довольно давно и для разборки я взял старинную программу ReJig 0.5f ( http://www.videohelp.com/tools/ReJig ) которой и разобрал данный диск.
Затем в Фотошопе удалил надписи в меню диска и закинул проект в DVDLab.
В Лабе нарисовал все надписи в меню заново ( подборка похожего шрифта заняла минут 20 ) , затем занялся подгоном звуковых дорог в ВЕГАСЕ.
На диске теперь на две дороги больше.
Многоголоска 1 канала, спасибо alenavova ( дорога подогнана в ВЕГАСЕ )
Авторкая озвучка А.Кашкина спасибо hexagen : http://rutracker.org/forum/viewtopic.php?t=3902252 ( дорога подогнана в ВЕГАСЕ )
На диске присутствовал альбом оригинальных саундтреков, но на сборку еще и аудио плей листа меню не хватило...
Зато я на данном диске выловил глюк ЛАБА с несколькими PGC. При сборке. Лаб отказывался собирать диск ссылаясь на недостаток памяти ( почитал форумы, оказалось этому дефекту много лет, но он так и не исправлен в Лабе ), пришлось "выеживаться " с МОСТАМИ в Лабе.
Убил на все три вечера, более пересобирать данный диск для меня смысла нет. Кто желает дополнять и улучшать - дорога открыта!
Использованные программы : ReJig 0.5f , DVDLab , БИСВИТ с БИЛАЙТОМ, ФОТОШОП, ВЕГАС, МУКСМАН и РИМЕЙК.
Бонусы: треллер фильма,фотогалерея и фотоальбом.+ ( авторенные DENnv диски ) по списку...
Меню: Есть,русское/статичное/озвученное
Сэмпл: http://multi-up.com/959815
Тип релиза: DVD5 (Custom)
: DVD-Video
Видео: NTSC 4:3 (720x480) VBR Letterboxed ~ 6279.00 kbps avg
Аудио 1: русский/многоголосый Видеосервис, AC3, 2/0 (L,R) ch, 192 kbps, Delay 0 mSec
Аудио 2: русский/многоголосый 1 канал, AC3, 2/0 (L,R) ch, 192 kbps, Delay 0 mSec
Аудио 3: русский/авторский В.Дохалов, AC3, 2/0 (L,R) ch, 192 kbps, Delay 0 mSec
Аудио 4: русский/авторский А.Кашкин AC3, 2/0 (L,R) ch, 192 kbps, Delay 0 mSec
Аудио 5: русский/авторский ??? AC3, 2/0 (L,R) ch, 192 kbps, Delay 0 mSec
Аудио 6: английский оригинальный AC3, 2/0 (L,R) ch, 192 kbps, Delay 0 mSec

MediaInfo

General
Complete name : D:\ZYATEK_ [rutracker.org]\VIDEO_TS\VTS_01_1.VOB
Format : MPEG-PS
File size : 1 024 MiB
Duration : 22mn 53s
Overall bit rate mode : Variable
Overall bit rate : 6 253 Kbps
Video
ID : 224 (0xE0)
Format : MPEG Video
Format version : Version 2
Format profile : Main@Main
Format settings, BVOP : Yes
Format settings, Matrix : Custom
Format settings, GOP : M=3, N=12
Duration : 22mn 53s
Bit rate mode : Variable
Bit rate : 4 977 Kbps
Maximum bit rate : 3 902 Kbps
Width : 720 pixels
Height : 480 pixels
Display aspect ratio : 4:3
Frame rate : 29.970 fps
Standard : NTSC
Color space : YUV
Chroma subsampling : 4:2:0
Bit depth : 8 bits
Scan type : Interlaced
Scan order : Top Field First
Compression mode : Lossy
Bits/(Pixel*Frame) : 0.481
Stream size : 815 MiB (80%)
Audio #1
ID : 189 (0xBD)-128 (0x80)
Format : AC-3
Format/Info : Audio Coding 3
Mode extension : CM (complete main)
Muxing mode : DVD-Video
Duration : 22mn 53s
Bit rate mode : Constant
Bit rate : 192 Kbps
Channel(s) : 2 channels
Channel positions : Front: L R
Sampling rate : 48.0 KHz
Bit depth : 16 bits
Compression mode : Lossy
Stream size : 31.4 MiB (3%)
Audio #2
ID : 189 (0xBD)-129 (0x81)
Format : AC-3
Format/Info : Audio Coding 3
Mode extension : CM (complete main)
Muxing mode : DVD-Video
Duration : 22mn 53s
Bit rate mode : Constant
Bit rate : 192 Kbps
Channel(s) : 2 channels
Channel positions : Front: L R
Sampling rate : 48.0 KHz
Bit depth : 16 bits
Compression mode : Lossy
Stream size : 31.4 MiB (3%)
Audio #3
ID : 189 (0xBD)-130 (0x82)
Format : AC-3
Format/Info : Audio Coding 3
Mode extension : CM (complete main)
Muxing mode : DVD-Video
Duration : 22mn 53s
Bit rate mode : Constant
Bit rate : 192 Kbps
Channel(s) : 2 channels
Channel positions : Front: L R
Sampling rate : 48.0 KHz
Bit depth : 16 bits
Compression mode : Lossy
Stream size : 31.4 MiB (3%)
Audio #4
ID : 189 (0xBD)-131 (0x83)
Format : AC-3
Format/Info : Audio Coding 3
Mode extension : CM (complete main)
Muxing mode : DVD-Video
Duration : 22mn 53s
Bit rate mode : Constant
Bit rate : 192 Kbps
Channel(s) : 2 channels
Channel positions : Front: L R
Sampling rate : 48.0 KHz
Bit depth : 16 bits
Compression mode : Lossy
Stream size : 31.4 MiB (3%)
Audio #5
ID : 189 (0xBD)-132 (0x84)
Format : AC-3
Format/Info : Audio Coding 3
Mode extension : CM (complete main)
Muxing mode : DVD-Video
Duration : 22mn 53s
Bit rate mode : Constant
Bit rate : 192 Kbps
Channel(s) : 2 channels
Channel positions : Front: L R
Sampling rate : 48.0 KHz
Bit depth : 16 bits
Compression mode : Lossy
Stream size : 31.4 MiB (3%)
Audio #6
ID : 189 (0xBD)-133 (0x85)
Format : AC-3
Format/Info : Audio Coding 3
Format profile : Dolby Digital
Mode extension : CM (complete main)
Muxing mode : DVD-Video
Duration : 22mn 53s
Bit rate mode : Constant
Bit rate : 192 Kbps
Channel(s) : 2 channels
Channel positions : Front: L R
Sampling rate : 48.0 KHz
Bit depth : 16 bits
Compression mode : Lossy
Stream size : 31.4 MiB (3%)
Text #1
ID : 189 (0xBD)-32 (0x20)
Format : RLE
Format/Info : Run-length encoding
Muxing mode : DVD-Video
Duration : 22mn 24s
Delay relative to video : 28s 94ms
Text #2
ID : 189 (0xBD)-33 (0x21)
Format : RLE
Format/Info : Run-length encoding
Muxing mode : DVD-Video
Duration : 22mn 19s
Delay relative to video : 32s 499ms
Text #3
ID : 224 (0xE0)-DVD-2
Format : EIA-608
Muxing mode : DVD-Video
Muxing mode, more info : Muxed in Video #1
Bit rate mode : Constant
Stream size : 0.00 Byte (0%)
Menu
Title: ZYATEK_ [rutracker.org]
Size: 4.30 Gb ( 4 512 654,00 KBytes ) - DVD-5
Enabled regions: 1, 2, 3, 4, 5, 6, 7, 8
VTS_01 :
Play Length: 01:35:08
Video: NTSC 4:3 (720x480) VBR, Letterboxed
Audio:
Russian (Dolby AC3, 2 ch)
Russian (Dolby AC3, 2 ch)
Russian (Dolby AC3, 2 ch)
Russian (Dolby AC3, 2 ch)
Russian (Dolby AC3, 2 ch)
English (Dolby AC3, 2 ch)
Subtitles:
Russian
English
VTS_02 :
Play Length: 00:01:57+00:01:34+00:01:48
Video: NTSC 4:3 (720x480) VBR, Letterboxed
Audio:
English (Dolby AC3, 2 ch)
* Menus Information *
VIDEO_TS Menu
Video:
NTSC 4:3 (720x480) VBR
Letterboxed
English Language Unit :
Title Menu
VTS_01 Menu
Video:
NTSC 4:3 (720x480) VBR
Letterboxed
Audio:
Not specified (Dolby AC3, 2 ch)
English Language Unit :
Root Menu
VTS_02 Menu
Video:
NTSC 4:3 (720x480) VBR
Auto Pan&Scan, Auto Letterboxed
English Language Unit :
Root Menu

Скриншоты меню









Скриншоты





Скриншоты доп. материалов






_________________
Показать сообщения:    

Текущее время: Сегодня 11:00

Часовой пояс: GMT



Вы не можете начинать темы
Вы не можете отвечать на сообщения
Вы не можете редактировать свои сообщения
Вы не можете удалять свои сообщения
Вы не можете голосовать в опросах
Вы не можете прикреплять файлы к сообщениям
Вы не можете скачивать файлы