Важное объявление!
У Нас Все раздачи мультитрекерные, при нуле пиров в релизах, можете смело вставать на закачку!
 
Автор Сообщение

димитри37

Стаж:
4 года 2 месяца
Сообщений:
1236

Репутация: 127

[+] [-]
Вне форума [Профиль] [ЛС]

Зомбиби или Завали зомбака / Zombibi
Страна: Нидерланды
Жанр: ужасы, комедия
Год выпуска: 2012
Продолжительность: 01:25:24
Перевод: Любительский (многоголосый закадровый) ViruseProject
Cубтитры: нет
Оригинальная аудиодорожка: нет
Режиссер: Мартин Смитс, Эрвин ван ден Эшоф
В ролях: Яхья Гайер, Мимон Юлед Ради, Серджо Хасселбайнк, Гиги Равелли, Юрих Амем, Ноэль Дилан, Ян Доенсе, Рик Синкельдам и др.
Описание: Обломки орбитальной станции «Мир» падают на Амстердам, принеся с собой из космоса смертоносный вирус. Во мгновение ока голландская столица превращается в кормушку для кровожадных толп оживших мертвецов. И где-то посреди всеобщего бардака несколько оболтусов пытаются найти свой путь к спасению.



Качество видео: HDRip
Формат видео: AVI
Видео: 720x304 (2.37:1), 24.000 fps, XviD build 50 ~2056 kbps avg, 0.39 bit/pixel
Аудио: 48 kHz, AC3 Dolby Digital, 3/2 (L,C,R,l,r) + LFE ch, ~384 kbps

MediaInfo

X:\ОЗВУЧКА\ФИЛЬМЫ\ЗОМБИБИ\Zombibi.2012.ViruseProject.avi
General
Complete name : X:\ОЗВУЧКА\ФИЛЬМЫ\ЗОМБИБИ\Zombibi.2012.ViruseProject.avi
Format : AVI
Format/Info : Audio Video Interleave
File size : 1.46 GiB
Duration : 1h 25mn
Overall bit rate : 2 450 Kbps
Writing application : VirtualDubMod 1.5.10.2 (build 2540/release)
Writing library : VirtualDubMod build 2540/release
Video #0
ID : 0
Format : MPEG-4 Visual
Format profile : Advanced Simple@L5
Format settings, BVOP : 1
Format settings, QPel : No
Format settings, GMC : No warppoints
Format settings, Matrix : Default (MPEG)
Codec ID : XVID
Codec ID/Hint : XviD
Duration : 1h 25mn
Bit rate : 2 056 Kbps
Width : 720 pixels
Height : 304 pixels
Display aspect ratio : 2.35:1
Frame rate : 24.000 fps
Color space : YUV
Chroma subsampling : 4:2:0
Bit depth : 8 bits
Scan type : Progressive
Compression mode : Lossy
Bits/(Pixel*Frame) : 0.391
Stream size : 1.23 GiB (84%)
Writing library : XviD 1.2.1 (UTC 2008-12-04)
Audio #1
ID : 1
Format : AC-3
Format/Info : Audio Coding 3
Mode extension : CM (complete main)
Format settings, Endianness : Big
Codec ID : 2000
Duration : 1h 25mn
Bit rate mode : Constant
Bit rate : 384 Kbps
Channel(s) : 6 channels
Channel positions : Front: L C R, Side: L R, LFE
Sampling rate : 48.0 KHz
Bit depth : 16 bits
Compression mode : Lossy
Stream size : 235 MiB (16%)
Alignment : Split accross interleaves
Interleave, duration : 42 ms (1.00 video frame)
Interleave, preload duration : 500 ms

Скриншот c названием фильма

Скриншоты

-
Показать сообщения:    

Текущее время: Сегодня 14:46

Часовой пояс: GMT



Вы не можете начинать темы
Вы не можете отвечать на сообщения
Вы не можете редактировать свои сообщения
Вы не можете удалять свои сообщения
Вы не можете голосовать в опросах
Вы не можете прикреплять файлы к сообщениям
Вы не можете скачивать файлы