Ивановский Торрент трекер
Яндекс.Погода
 

[Цитировать]
HUNTER


Золушка
Cinderella
-

  • Год производства: 1950

  • Страна: USA

  • Жанр: семейный, мультфильм

  • Продолжительность: 01:14:28

  • Перевод: Профессиональный (полное дублирование)

  • Субтитры: Отсутствуют-
  • Режиссер: Клайд Джероними, Уилфред Джексон, Хэмильтон Ласки / Clyde Geronimi, Wilfred Jackson, Hamilton Luske
    -
  • Описание: Золушка — бедная сиротка, которую злая мачеха и ее вздорные дочки, заставляют тяжко работать с утра до ночи. Она так хочет попасть на королевский бал. На помощь бедняжке приходит Добрая фея! Силой волшебства она наделяет Золушку роскошной каретой, чудесным платьем и необыкновенными хрустальными башмачками.
    -
  • Качество видео: BDRip 1080p

  • Формат видео: mkv

  • Видео кодек: H264

  • Аудио кодек: AC3

  • Видео: 1456x1080 (4:3), 23.976 fps, 8 483 Kbps, 0.1208 bit/pixel

  • Аудио: 48 kHz, AC3 6 ch ~640 kbps avg-
  • Автор рипа: falco
-

Доп. информация

Скриншоты

MediaInfo

Код: copyText_writeLink('this.parentNode.parentNode.nextSibling.nextSibling');
General
Unique ID : 250940282887923574789836112526015277691 (0xBCC9572B7236ABD2840C13737E592A7B)
Complete name : D:\Торенты\Cinderella.1950.BDRip.1080p.falco.mkv
Format : Matroska
Format version : Version 4 / Version 2
File size : 4.41 GiB
Duration : 1h 14mn
Overall bit rate : 8 483 Kbps
Movie name : Cinderella (1950) BDRemux 1080p
Encoded date : UTC 2013-08-04 09:38:41
Writing application : mkvmerge v6.3.0 ('You can't stop me!') built on Jun 28 2013 20:09:41
Writing library : libebml v1.3.0 + libmatroska v1.4.0
Video
ID : 1
Format : AVC
Format/Info : Advanced Video Codec
Format profile : High@L4.1
Format settings, CABAC : Yes
Format settings, ReFrames : 4 frames
Codec ID : V_MPEG4/ISO/AVC
Duration : 1h 14mn
Bit rate : 7 840 Kbps
Width : 1 456 pixels
Height : 1 080 pixels
Display aspect ratio : 4:3
Frame rate : 23.976 fps
Color space : YUV
Chroma subsampling : 4:2:0
Bit depth : 8 bits
Scan type : Progressive
Bits/(Pixel*Frame) : 0.208
Stream size : 3.99 GiB (90%)
Writing library : x264 core 130 r2273 b3065e6
Encoding settings : cabac=1 / ref=4 / deblock=1:-1:-1 / analyse=0x3:0x113 / me=umh / subme=7 / psy=1 / psy_rd=1.00:0.20 / mixed_ref=1 / me_range=16 / chroma_me=1 / trellis=2 / 8x8dct=1 / cqm=0 / deadzone=21,11 / fast_pskip=0 / chroma_qp_offset=-3 / threads=6 / lookahead_threads=1 / sliced_threads=0 / nr=0 / decimate=0 / interlaced=0 / bluray_compat=0 / constrained_intra=0 / bframes=3 / b_pyramid=2 / b_adapt=2 / b_bias=0 / direct=3 / weightb=1 / open_gop=0 / weightp=2 / keyint=250 / keyint_min=23 / scenecut=40 / intra_refresh=0 / rc_lookahead=50 / rc=2pass / mbtree=1 / bitrate=7840 / ratetol=1.0 / qcomp=0.60 / qpmin=0 / qpmax=69 / qpstep=4 / cplxblur=20.0 / qblur=0.5 / vbv_maxrate=50000 / vbv_bufsize=50000 / nal_hrd=none / ip_ratio=1.40 / aq=1:1.00
Default : Yes
Forced : No
Audio
ID : 2
Format : AC-3
Format/Info : Audio Coding 3
Mode extension : CM (complete main)
Format settings, Endianness : Big
Codec ID : A_AC3
Duration : 1h 14mn
Bit rate mode : Constant
Bit rate : 640 Kbps
Channel(s) : 6 channels
Channel positions : Front: L C R, Side: L R, LFE
Sampling rate : 48.0 KHz
Bit depth : 16 bits
Compression mode : Lossy
Stream size : 341 MiB (8%)
Title : Дубляж | Студия Пифагор | BD CEE
Language : Russian
Default : Yes
Forced : No
Menu
00:00:00.000 : ru:01. Вступительные титры
00:01:23.166 : ru:02. Давным давно...
00:04:20.719 : ru:03. Мечте я верить буду!
00:07:37.415 : ru:04. Гость - Газ
00:10:15.240 : ru:05. Его Величество Люцифер
00:13:29.142 : ru:06. Отвлекающий манёвр
00:17:39.308 : ru:07. Кушать подано
00:22:07.826 : ru:08. Домашнее задание
00:23:32.953 : ru:09. Назначить бал! Сегодня!
00:26:05.731 : ru:10. Пой, Соловушка!
00:27:55.173 : ru:11. Приглашение на бал
00:31:00.150 : ru:12. Поможем Золушке
00:33:32.510 : ru:13. Бусы для Золушки
00:36:49.040 : ru:14. Дружные портные
00:38:55.708 : ru:15. Сюрприз!
00:42:02.103 : ru:16. Фея
00:44:11.983 : ru:17. Биббиди-Боббиди-Бум!
00:48:23.109 : ru:18. Провал?
00:52:54.171 : ru:19. Вальс!
00:56:57.122 : ru:20. Отчет королю
01:00:42.472 : ru:21. Взаперти
01:04:11.097 : ru:22. Указ короля
01:07:34.801 : ru:23. Всегда есть выход!
01:13:05.715 : ru:24. Мечты сбываются


Показать сообщения:    

Текущее время: 15-Дек 18:07

Часовой пояс: UTC ± 0


Вы не можете начинать темы
Вы не можете отвечать на сообщения
Вы не можете редактировать свои сообщения
Вы не можете удалять свои сообщения
Вы не можете голосовать в опросах
Вы не можете прикреплять файлы к сообщениям
Вы не можете скачивать файлы

!ВНИМАНИЕ!
Сайт не предоставляет электронные версии произведений, а занимается лишь коллекционированием и каталогизацией ссылок, присылаемых и публикуемых на форуме нашими читателями. Если вы являетесь правообладателем какого-либо представленного материала и не желаете, чтобы ссылка на него находилась в нашем каталоге, свяжитесь с нами, и мы незамедлительно удалим ее. Файлы для обмена на трекере предоставлены пользователями сайта, и администрация не несет ответственности за их содержание. Просьба не заливать файлы, защищенные авторскими правами, а также файлы нелегального содержания!