Ивановский Торрент трекер
Яндекс.Погода
 

[Цитировать]
HUNTER


Золушка 2: Мечты сбываются
Cinderella II: Dreams Come True
-

  • Год производства: 2002

  • Страна: USA

  • Жанр: мультфильм, фэнтези, мелодрама, семейный

  • Продолжительность: 01:13:27

  • Перевод: Профессиональный (полное дублирование)

  • Субтитры: Отсутствуют-
  • Режиссер: Джон Кафка / John Kafka
    -
  • Описание: Все знают, что сказка про Золушку закончилась тем, что она примерила хрустальную туфельку и вышла замуж за прекрасного принца. Закончилась? Ну, нет! Сказка только начинается!
    «Уолт Дисней» приглашает детей и взрослых в увлекательное и веселое путешествие по волшебному миру принцессы Золушки. Три совершенно новые истории, которых не найти в книгах: о первых днях Золушки во дворце, о мышонке Жаке, уговорившем Фею сделать его человеком, и о том, как злая и капризная сестра Золушки Анастасия научилась улыбаться и любить…
    -
  • Качество видео: BDRip 1080p

  • Формат видео: mkv

  • Видео кодек: H264

  • Аудио кодек: AC3

  • Видео: 1824x1080 (1.689), 23.976 fps, 7 700 Kbps, 0.163 bit/pixel

  • Аудио: 48 kHz, AC3 6 ch ~640 kbps avg-
  • Автор рипа: falco
-

Доп. информация

Скриншоты

MediaInfo

Код: copyText_writeLink('this.parentNode.parentNode.nextSibling.nextSibling');
General
Unique ID : 214771611232832016718884971117620070931 (0xA19381FA724EB4F582D18CDA92B18A13)
Complete name : D:\Торенты\Cinderella.2.Dreams.Come.True.2002.BDRip.1080p.falco.mkv
Format : Matroska
Format version : Version 4 / Version 2
File size : 4.28 GiB
Duration : 1h 13mn
Overall bit rate : 8 341 Kbps
Movie name : Cinderella II: Dreams Come True (2002) BDRemux 1080p
Encoded date : UTC 2013-08-04 14:54:32
Writing application : mkvmerge v6.3.0 ('You can't stop me!') built on Jun 28 2013 20:09:41
Writing library : libebml v1.3.0 + libmatroska v1.4.0
Video
ID : 1
Format : AVC
Format/Info : Advanced Video Codec
Format profile : High@L4.1
Format settings, CABAC : Yes
Format settings, ReFrames : 4 frames
Codec ID : V_MPEG4/ISO/AVC
Duration : 1h 13mn
Bit rate : 7 700 Kbps
Width : 1 824 pixels
Height : 1 080 pixels
Display aspect ratio : 1.689
Frame rate : 23.976 fps
Color space : YUV
Chroma subsampling : 4:2:0
Bit depth : 8 bits
Scan type : Progressive
Bits/(Pixel*Frame) : 0.163
Stream size : 3.87 GiB (90%)
Writing library : x264 core 130 r2273 b3065e6
Encoding settings : cabac=1 / ref=4 / deblock=1:-1:-1 / analyse=0x3:0x113 / me=umh / subme=7 / psy=1 / psy_rd=1.00:0.20 / mixed_ref=1 / me_range=16 / chroma_me=1 / trellis=2 / 8x8dct=1 / cqm=0 / deadzone=21,11 / fast_pskip=0 / chroma_qp_offset=-3 / threads=6 / lookahead_threads=1 / sliced_threads=0 / nr=0 / decimate=0 / interlaced=0 / bluray_compat=0 / constrained_intra=0 / bframes=3 / b_pyramid=2 / b_adapt=2 / b_bias=0 / direct=3 / weightb=1 / open_gop=0 / weightp=2 / keyint=250 / keyint_min=23 / scenecut=40 / intra_refresh=0 / rc_lookahead=50 / rc=2pass / mbtree=1 / bitrate=7700 / ratetol=1.0 / qcomp=0.60 / qpmin=0 / qpmax=69 / qpstep=4 / cplxblur=20.0 / qblur=0.5 / vbv_maxrate=50000 / vbv_bufsize=50000 / nal_hrd=none / ip_ratio=1.40 / aq=1:1.00
Default : Yes
Forced : No
Audio
ID : 2
Format : AC-3
Format/Info : Audio Coding 3
Mode extension : CM (complete main)
Format settings, Endianness : Big
Codec ID : A_AC3
Duration : 1h 13mn
Bit rate mode : Constant
Bit rate : 640 Kbps
Channel(s) : 6 channels
Channel positions : Front: L C R, Side: L R, LFE
Sampling rate : 48.0 KHz
Bit depth : 16 bits
Compression mode : Lossy
Stream size : 336 MiB (8%)
Title : Дубляж | "Нева-1" | BD CEE
Language : Russian
Default : Yes
Forced : No
Menu
00:00:00.000 : ru:01. Вступительные титры
00:03:18.949 : ru:02. Добро пожаловать домой
00:07:21.191 : ru:03. Новые правила во дворце
00:13:53.750 : ru:04. Живи, как подсказывают сердце и душа
00:18:36.365 : ru:05. Первый бал Золушки
00:22:27.680 : ru:06. Думать о большем
00:27:55.716 : ru:07. Мир восхищается тобой
00:34:03.959 : ru:08. Золушке помогают
00:37:44.012 : ru:09. Праздник весны
00:42:53.321 : ru:10. Запутанная история
00:46:10.810 : ru:11. Знакомство с пекарем
00:52:20.262 : ru:12. Важнее то, что внутри
00:57:22.773 : ru:13. Мечты сбываются
01:05:14.994 : ru:14. Финальные титры
Показать сообщения:    

Текущее время: 23-Окт 03:33

Часовой пояс: UTC - 1


Вы не можете начинать темы
Вы не можете отвечать на сообщения
Вы не можете редактировать свои сообщения
Вы не можете удалять свои сообщения
Вы не можете голосовать в опросах
Вы не можете прикреплять файлы к сообщениям
Вы не можете скачивать файлы

!ВНИМАНИЕ!
Сайт не предоставляет электронные версии произведений, а занимается лишь коллекционированием и каталогизацией ссылок, присылаемых и публикуемых на форуме нашими читателями. Если вы являетесь правообладателем какого-либо представленного материала и не желаете, чтобы ссылка на него находилась в нашем каталоге, свяжитесь с нами, и мы незамедлительно удалим ее. Файлы для обмена на трекере предоставлены пользователями сайта, и администрация не несет ответственности за их содержание. Просьба не заливать файлы, защищенные авторскими правами, а также файлы нелегального содержания!