Ивановский Торрент трекер
Яндекс.Погода
 

[Цитировать]
HUNTER

Золотоискатели 1933-го года / Gold Diggers of 1933
Страна: США
Жанр: мюзикл, драма, комедия
Год выпуска: 1933
Продолжительность: 01:37:36
Перевод: Профессиональный (двухголосый закадровый) - Светла
Cубтитры: английские
Оригинальная аудиодорожка: английский
Режиссер: Мервин ЛеРой / Mervyn LeRoy
В ролях: Уоррен Уильям, Джоан Блонделл, Элин МакМэон, Руби Килер, Дик Пауэлл, Гай Кибби, Нед Спаркс, Джинджер Роджерс, Роберт Эгнью, Лоретта Эндрюс
Описание: Барни Хопкинс готовит новое шоу на Бродвее, но за день до этого его закрывают, а реквизит и костюмы конфискуют за неоплаченные счета. На дворе «Великая депрессия» и весь коллектив, оказавшись на улице, вынужден голодать. Нет возможности устроиться на работу и трем подружкам Кэрол, Трикси и Поли. Несладко им пришлось и они готовы уже опустить руки, но случайно одна из девушек узнает о том, что Хопкинс готовит новую пьесу…
Доп. информация:


За дорожку с переводом спасибо master-pepper и olegsa
Сэмпл: http://sendfile.su/1044222
Тип релиза: WEB-DL 720p
Контейнер: MKV
Видео: AVC, 988x720, L3.1, 23.976fps, 4051kbps
Аудио 1: Russian: AC3, 48000Hz, 2ch, 192kbps
Аудио 2: English: AC3, 48000Hz, 1ch, 192kbps - DVD
Аудио 3: English: AAC, 48000Hz, 2ch, 149kbps - WEB-DL
Формат субтитров: softsub (SRT)

MediaInfo

Общее
Уникальный идентификатор : 205093854073265987585195965964451643896 (0x9A4BA3B612716E00B12F81A9CA9901F8)
Полное имя : T:\Gold Diggers of 1933 (WEB-DL 720p).mkv
Формат : Matroska
Версия формата : Version 4 / Version 2
Размер файла : 3,12 Гбайт
Продолжительность : 1 ч. 37 м.
Общий поток : 4584 Кбит/сек
Дата кодирования : UTC 2014-11-04 07:01:52
Программа кодирования : mkvmerge v6.9.1 ('Blue Panther') 64bit built on Apr 18 2014 18:23:38
Библиотека кодирования : libebml v1.3.0 + libmatroska v1.4.1
Видео
Идентификатор : 1
Формат : AVC
Формат/Информация : Advanced Video Codec
Профиль формата : High@L3.1
Параметр CABAC формата : Нет
Параметр ReFrames формата : 2 кадра
Идентификатор кодека : V_MPEG4/ISO/AVC
Продолжительность : 1 ч. 37 м.
Ширина : 988 пикселей
Высота : 720 пикселей
Соотношение сторон : 1,372
Режим частоты кадров : Постоянный
Частота кадров : 23,976 кадра/сек
Цветовое пространство : YUV
Субдискретизация насыщенности : 4:2:0
Битовая глубина : 8 бит
Тип развёртки : Прогрессивная
Язык : English
Default : Да
Forced : Нет
Основные цвета : BT.709
Характеристики трансфера : BT.709
Коэффициенты матрицы : BT.709
Аудио #1
Идентификатор : 2
Формат : AC-3
Формат/Информация : Audio Coding 3
Расширение режима : CM (complete main)
Параметр Endianness формата : Big
Идентификатор кодека : A_AC3
Продолжительность : 1 ч. 37 м.
Вид битрейта : Постоянный
Битрейт : 192 Кбит/сек
Каналы : 2 канала
Расположение каналов : Front: L R
Частота : 48,0 КГц
Битовая глубина : 16 бит
Метод сжатия : С потерями
Размер потока : 134 Мбайт (4%)
Заголовок : Светла
Язык : Russian
Default : Да
Forced : Нет
Аудио #2
Идентификатор : 3
Формат : AC-3
Формат/Информация : Audio Coding 3
Расширение режима : CM (complete main)
Параметр Endianness формата : Big
Идентификатор кодека : A_AC3
Продолжительность : 1 ч. 37 м.
Вид битрейта : Постоянный
Битрейт : 192 Кбит/сек
Каналы : 1 канал
Расположение каналов : Front: C
Частота : 48,0 КГц
Битовая глубина : 16 бит
Метод сжатия : С потерями
Размер потока : 134 Мбайт (4%)
Заголовок : DVD
Язык : English
Default : Нет
Forced : Нет
Аудио #3
Идентификатор : 4
Формат : AAC
Формат/Информация : Advanced Audio Codec
Профиль формата : LC
Идентификатор кодека : A_AAC
Продолжительность : 1 ч. 37 м.
Каналы : 2 канала
Расположение каналов : Front: L R
Частота : 48,0 КГц
Метод сжатия : С потерями
Заголовок : WEB-DL
Язык : English
Default : Нет
Forced : Нет
Текст
Идентификатор : 5
Формат : UTF-8
Идентификатор кодека : S_TEXT/UTF8
Идентификатор кодека/Информация : UTF-8 Plain Text
Язык : English
Default : Нет
Forced : Нет
Меню
00:00:00.000 : en:Credits.
00:01:00.000 : en:We're in the Money.
00:03:42.000 : en:The Depression, dearie.
00:08:00.000 : en:Dibs for dress-up.
00:10:01.000 : en:The Shadow Waltz(1).
00:12:30.000 : en:I've Got to Sing a Torch Song.
00:17:54.000 : en:A show but no money.
00:21:23.000 : en:Money man.
00:26:46.000 : en:Pettin' in the Park(1).
00:28:12.000 : en:Trixie's suspicion.
00:30:16.000 : en:Opening night substitute.
00:34:15.000 : en:Pettin' in the Park(2).
00:42:04.000 : en:Gold diggers present and past.
00:46:48.000 : en:Parasitic showgirls.
00:51:40.000 : en:Double hat trick.
00:56:30.000 : en:Attack of chiseling.
00:58:49.000 : en:Two Fannys.
01:02:45.000 : en:Let's dance.
01:06:15.000 : en:All a misunderstanding.
01:08:27.000 : en:Sleeping in her bed.
01:13:09.000 : en:Change of heart.
01:16:43.000 : en:True love.
01:21:33.000 : en:The Shadow Waltz(2).
01:28:08.000 : en:Three happy couples.
01:30:29.000 : en:Remember My Forgotten Man.

Скриншоты



Показать сообщения:    

Текущее время: 12-Дек 02:54

Часовой пояс: UTC ± 0


Вы не можете начинать темы
Вы не можете отвечать на сообщения
Вы не можете редактировать свои сообщения
Вы не можете удалять свои сообщения
Вы не можете голосовать в опросах
Вы не можете прикреплять файлы к сообщениям
Вы не можете скачивать файлы

!ВНИМАНИЕ!
Сайт не предоставляет электронные версии произведений, а занимается лишь коллекционированием и каталогизацией ссылок, присылаемых и публикуемых на форуме нашими читателями. Если вы являетесь правообладателем какого-либо представленного материала и не желаете, чтобы ссылка на него находилась в нашем каталоге, свяжитесь с нами, и мы незамедлительно удалим ее. Файлы для обмена на трекере предоставлены пользователями сайта, и администрация не несет ответственности за их содержание. Просьба не заливать файлы, защищенные авторскими правами, а также файлы нелегального содержания!