Ивановский Торрент трекер
Яндекс.Погода
 

[Цитировать]
HUNTER

Золотая лихорадка / The Gold Rush- Год выпуска: 1925
Страна: США
Жанр: комедия, приключения, немое кино
Продолжительность: 01:29:14
Перевод: Субтитры
Оригинальная аудиодорожка: музыкальное сопровождение
Cубтитры: Русские (Антон Шумов), английские интертитры-Режиссер: Чарльз Чаплин / Charles Chaplin
В ролях: Чарльз Чаплин, Мак Суэйн, Том Мюррэй, Генри Бергман, Малкольм Вейт, Джорджия Хейл, Джек Адамс, Фрэнк Адериас, Леона Адериас, Лиллиэн Адриан-Описание:
История о злоключениях маленького бродяги, который на этот раз отправляется на золотые прииски Аляски. Идет 1898 год, старатель-одиночка бредет по заснеженным горам и долинам. Начинается буря, и бродяге нужно где-то укрыться. На счастье, он встречает на пути хижину, в которой уже располагается разыскиваемый полицией Чёрный Ларсен...
Это немая версия "Золотой лихорадки", близкая к первоначальному виду, в котором фильм вышел на экраны в 1925-ом. В отличие от авторского переиздания 1942-го содержит оригинальные интертитры и некоторые вырезанные сцены.-За синхронизацию субтитров и фортепианного сопровождения спасибо 7ime 7raveller.
| | Сэмпл-Качество: BDRemux 1080p (The Gold Rush 1925 1080p Blu-ray AVC DTS-HD MA 5.1, thx violator99)
Контейнер: MKV
Видео: 1920x1080 (1.33:1), 23,976 fps, 23243 kbps
Аудио 1: DTS-HD MA 5.1, 48 kHz, 3740 kbps, 24-bit (DTS Core: 5.1, 48 kHz, 1509 kbps, 24-bit) — Score by Charles Chaplin (1942), adapted by Timothy Brock (2007)
Аудио 2: AC3 2.0, 48 kHz, 192 kbps – Piano score by Neil Brand
Аудио 3: Английский AC3 2.0, 48 kHz, 192 kbps – Commentary by Chaplin biographer Jeffrey Vance
Формат субтитров: softsub (SRT)

Скриншоты


MI

General
Unique ID : 203040791911098583998882407203859984730 (0x98C03BEE75E25A75BF2D346AC589F15A)
Complete name : The.Gold.Rush.1925.CC.1080p.Remux.mkv
Format : Matroska
Format version : Version 2
File size : 17.0 GiB
Duration : 1h 29mn
Overall bit rate mode : Variable
Overall bit rate : 27.2 Mbps
Movie name : The Gold Rush / Золотая лихорадка (1925) – RuTracker
Encoded date : UTC 2014-10-04 10:06:56
Writing application : mkvmerge v7.0.0 ('Where We Going') 64bit built on Jun 9 2014 15:16:27
Writing library : libebml v1.3.0 + libmatroska v1.4.1
Attachment : Yes
Video
ID : 1
Format : AVC
Format/Info : Advanced Video Codec
Format profile : High@L4.1
Format settings, CABAC : Yes
Format settings, ReFrames : 4 frames
Codec ID : V_MPEG4/ISO/AVC
Duration : 1h 29mn
Bit rate mode : Variable
Maximum bit rate : 37.0 Mbps
Width : 1 920 pixels
Height : 1 080 pixels
Display aspect ratio : 16:9
Frame rate mode : Constant
Frame rate : 23.976 fps
Color space : YUV
Chroma subsampling : 4:2:0
Bit depth : 8 bits
Scan type : Progressive
Title : The Gold Rush 1925 1080p Blu-ray AVC DTS-HD MA 5.1-v99
Language : English
Default : Yes
Forced : No
Audio #1
ID : 2
Format : DTS
Format/Info : Digital Theater Systems
Format profile : MA / Core
Mode : 16
Format settings, Endianness : Big
Codec ID : A_DTS
Duration : 1h 29mn
Bit rate mode : Variable
Bit rate : Unknown / 1 509 Kbps
Channel(s) : 6 channels
Channel positions : Front: L C R, Side: L R, LFE
Sampling rate : 48.0 KHz
Bit depth : 24 bits
Compression mode : Lossless / Lossy
Title : Score by Charles Chaplin (1942), adapted by Timothy Brock (2007)
Default : Yes
Forced : No
Audio #2
ID : 3
Format : AC-3
Format/Info : Audio Coding 3
Mode extension : CM (complete main)
Format settings, Endianness : Big
Codec ID : A_AC3
Duration : 1h 29mn
Bit rate mode : Constant
Bit rate : 192 Kbps
Channel(s) : 2 channels
Channel positions : Front: L R
Sampling rate : 48.0 KHz
Bit depth : 16 bits
Compression mode : Lossy
Stream size : 123 MiB (1%)
Title : Piano score by Neil Brand
Language : English
Default : No
Forced : No
Audio #3
ID : 4
Format : AC-3
Format/Info : Audio Coding 3
Mode extension : CM (complete main)
Format settings, Endianness : Big
Codec ID : A_AC3
Duration : 1h 29mn
Bit rate mode : Constant
Bit rate : 192 Kbps
Channel(s) : 2 channels
Channel positions : Front: L R
Sampling rate : 48.0 KHz
Bit depth : 16 bits
Compression mode : Lossy
Stream size : 123 MiB (1%)
Title : Commentary by Chaplin biographer Jeffrey Vance
Language : English
Default : No
Forced : No
Text
ID : 5
Format : UTF-8
Codec ID : S_TEXT/UTF8
Codec ID/Info : UTF-8 Plain Text
Title : А.Шумов
Language : Russian
Default : Yes
Forced : No
Menu
00:00:00.000 : en:01. Opening titles
00:02:35.781 : en:02. Chilkoot Pass
00:07:02.422 : en:03. Black Larsen
00:12:44.389 : en:04. Three hungry men
00:17:27.630 : en:05. "Thanksgiving Dinner"
00:20:27.393 : en:06. An appetizing friend
00:27:07.793 : en:07. "Parting of the ways"
00:29:31.979 : en:08. Georgia
00:35:53.318 : en:09. Dancing at the Monte Carlo
00:42:21.956 : en:10. Hank Curtis and his cabin
00:46:25.449 : en:11. Surprise guests
00:53:15.150 : en:12. "Begged, borrowed, and shoveled"
00:55:05.385 : en:13. New Year's Eve
00:59:44.414 : en:14. Georgia remembers
01:05:47.068 : en:15. The return of Big Jim
01:07:29.379 : en:16. "Please forgive me"
01:11:46.552 : en:17. "The cabin at last!"
01:14:42.228 : en:18. "All was calm"
01:22:11.260 : en:19. Homeward-bound


Показать сообщения:    

Текущее время: 16-Дек 01:39

Часовой пояс: UTC ± 0


Вы не можете начинать темы
Вы не можете отвечать на сообщения
Вы не можете редактировать свои сообщения
Вы не можете удалять свои сообщения
Вы не можете голосовать в опросах
Вы не можете прикреплять файлы к сообщениям
Вы не можете скачивать файлы

!ВНИМАНИЕ!
Сайт не предоставляет электронные версии произведений, а занимается лишь коллекционированием и каталогизацией ссылок, присылаемых и публикуемых на форуме нашими читателями. Если вы являетесь правообладателем какого-либо представленного материала и не желаете, чтобы ссылка на него находилась в нашем каталоге, свяжитесь с нами, и мы незамедлительно удалим ее. Файлы для обмена на трекере предоставлены пользователями сайта, и администрация не несет ответственности за их содержание. Просьба не заливать файлы, защищенные авторскими правами, а также файлы нелегального содержания!