Важное объявление!
У Нас Все раздачи мультитрекерные, при нуле пиров в релизах, можете смело вставать на закачку!
 
Автор Сообщение

HUNTER

Стаж:
4 года 9 месяцев
Сообщений:
65021

Репутация: 101

[+] [-]
Вне форума [Профиль] [ЛС]

Золотая лихорадка: Южная Америка: 4 сезон / Gold Rush:South America 4 Season
Год выпуска: 2014
Страна: США
Жанр: ТВ-Шоу
Продолжительность: ~44:00
Перевод: Профессиональный (многоголосый закадровый)
Русские субтитры: нет
Описание: Команда Тодда Хоффмана возвращается в новом сезоне знаменитой программы Discovery Channel «Золотая лихорадка», чтобы вновь отправиться на поиски золота. В этот раз они посетят джунгли и горы Южной Америки, и попробуют найти заветные жилы в самых неожиданных местах!
Сэмпл: http://multi-up.com/948861
качество: SATRip
формат: AVI
Видео: XviD, 704x400 (16:9), 1911 Kbps, 25.000 fps
Аудио: MP3, 44.1 KHz, 2 ch, 128 Kbps
Релиз:

Список выпусков/серий

Queen of Diamonds S4E01
The.complexity.of.learning S4E02
At.frightening.depth S4E03
The.road.out.of.hell S4E04

MediaInfo

GeneralComplete name : E:\За граню\Золотая лихорадка Южная Америка 4 сезон\Gold.Rush South America The.complexity.of.learning S4E02.aviFormat : AVIFormat/Info : Audio Video InterleaveFile size : 679 MiBDuration : 43mn 55sOverall bit rate : 2 162 KbpsWriting application : VirtualDubMod 1.5.10.2 (build 2540/release)Writing library : VirtualDubMod build 2540/release
VideoID : 0Format : MPEG-4 VisualFormat profile : Advanced Simple@L5Format settings, BVOP : 1Format settings, QPel : NoFormat settings, GMC : No warppointsFormat settings, Matrix : Default (H.263)Codec ID : XVIDCodec ID/Hint : XviDDuration : 43mn 55sBit rate : 2 024 KbpsWidth : 704 pixelsHeight : 400 pixelsDisplay aspect ratio : 16:9Frame rate : 25.000 fpsColor space : YUVChroma subsampling : 4:2:0Bit depth : 8 bitsScan type : ProgressiveCompression mode : LossyBits/(Pixel*Frame) : 0.288Stream size : 636 MiB (94%)Writing library : XviD 1.2.1 (UTC 2008-12-04)
AudioID : 1Format : MPEG AudioFormat version : Version 1Format profile : Layer 3Codec ID : 55Codec ID/Hint : MP3Duration : 43mn 55sBit rate mode : ConstantBit rate : 128 KbpsChannel(s) : 2 channelsSampling rate : 44.1 KHzCompression mode : LossyStream size : 40.2 MiB (6%)Alignment : Split accross interleavesInterleave, duration : 40 ms (1.00 video frame)Interleave, preload duration : 500 msWriting library : LAME3.98rEncoding settings : -m s -V 4 -q 2 -lowpass 17 -b 128

Скриншоты


_________________
Показать сообщения:    

Текущее время: Сегодня 10:49

Часовой пояс: GMT



Вы не можете начинать темы
Вы не можете отвечать на сообщения
Вы не можете редактировать свои сообщения
Вы не можете удалять свои сообщения
Вы не можете голосовать в опросах
Вы не можете прикреплять файлы к сообщениям
Вы не можете скачивать файлы