Ивановский Торрент трекер
Яндекс.Погода
 

[Цитировать]
HUNTER

Золотая лихорадка: Под лед Берингова моря / Bering Sea Gold: Under the Ice (Season 02 Episode 01/5)
Год выпуска: 2013
Страна: США
Жанр: Документальный, реалити-шоу
Продолжительность: ~ 42 минуты на серию
Перевод: Профессиональный (двухголосый закадровый)
Русские субтитры: нет
Описание: В новом сезоне смотрите продолжение зимних приключений золотодобытчиков в Номе (Аляска), на ледяных берегах Берингова моря...
Релиз: mcisco
качество: HDTVRip
формат: AVI
Видео: XviD, 704x400, 16:9, ~ 1800 Kbps, 25fps
Аудио: AC3, 192 kbps, 48.0 KHz, 2 ch

Список выпусков/серий

01. We Are Gonna Be Golden
02. Dozers and Dragons
03. No Fuel to Burn
04. Waterfalls of Gold
05. The Thaw

MediaInfo

ОбщееПолное имя : D:\KINO\Bering.Sea.Gold.Ice.s02.2013\Bering.Sea.Gold.Ice.s02e01.2013.XviD_mc.aviФормат : AVIФормат/Информация : Audio Video InterleaveРазмер файла : 602 МбайтПродолжительность : 41 м.Общий поток : 2029 Кбит/секПрограмма кодирования : VirtualDubMod 1.5.10.2 (build 2540/release)Библиотека кодирования : VirtualDubMod build 2540/release
ВидеоИдентификатор : 0Формат : MPEG-4 VisualПрофиль формата : Advanced Simple@L5Параметр BVOP формата : 2Параметр QPel формата : НетПараметр GMC формата : Без точки переходаПараметр матрицы формата : Default (H.263)Идентификатор кодека : XVIDИдентификатор кодека/Подсказка : XviDПродолжительность : 41 м.Битрейт : 1825 Кбит/секШирина : 704 пикселяВысота : 400 пикселейСоотношение сторон : 16:9Частота кадров : 29,970 кадров/секЦветовое пространство : YUVСубдискретизация насыщенности : 4:2:0Битовая глубина : 8 битТип развёртки : ПрогрессивнаяМетод сжатия : С потерямиБит/(Пиксели*Кадры) : 0.216Размер потока : 541 Мбайт (90%)Библиотека кодирования : XviD 64
АудиоИдентификатор : 1Формат : AC-3Формат/Информация : Audio Coding 3Расширение режима : CM (complete main)Параметр Endianness формата : BigИдентификатор кодека : 2000Продолжительность : 41 м.Вид битрейта : ПостоянныйБитрейт : 192 Кбит/секКаналы : 2 каналаРасположение каналов : Front: L RЧастота : 48,0 КГцБитовая глубина : 16 битМетод сжатия : С потерямиРазмер потока : 56,9 Мбайт (9%)Выравнивание : Разделение по промежуткамПродолжительность промежутка : 33 мс. (1,00 видеокадр)Время предзагрузки промежутка : 500 мс.

Скриншоты



Показать сообщения:    

Текущее время: 21-Окт 13:09

Часовой пояс: UTC - 1


Вы не можете начинать темы
Вы не можете отвечать на сообщения
Вы не можете редактировать свои сообщения
Вы не можете удалять свои сообщения
Вы не можете голосовать в опросах
Вы не можете прикреплять файлы к сообщениям
Вы не можете скачивать файлы

!ВНИМАНИЕ!
Сайт не предоставляет электронные версии произведений, а занимается лишь коллекционированием и каталогизацией ссылок, присылаемых и публикуемых на форуме нашими читателями. Если вы являетесь правообладателем какого-либо представленного материала и не желаете, чтобы ссылка на него находилась в нашем каталоге, свяжитесь с нами, и мы незамедлительно удалим ее. Файлы для обмена на трекере предоставлены пользователями сайта, и администрация не несет ответственности за их содержание. Просьба не заливать файлы, защищенные авторскими правами, а также файлы нелегального содержания!