Ивановский Торрент трекер
Яндекс.Погода
 

[Цитировать]
HUNTER

Зов предков / The Call of the Wild- Год выпуска: 1935
Страна: США
Жанр: приключения, мелодрама
Продолжительность: 01:31:43
Перевод: Одноголосый закадровый — Светла + Andi
Оригинальная аудиодорожка: Английская
Cубтитры: Английские (полные, для слабослышащих), французские-Режиссер: Уильям Уэллмен / William A. Wellman
В ролях: Кларк Гейбл, Лоретта Янг, Джек Оуки, Реджинальд Оуэн, Фрэнк Конрой, Кэтерин ДеМиль, Сидни Толер, Джеймс Бёрк, Чарльз Стивенс, Лало Энчинас-Описание:
По рассказу Джека Лондона.
Джек Торнтон проиграл все свои деньги и довольно внушительную сумму за карточным столом. В тот же вечер он встречается с Коротышкой, который вышел из тюрьмы за то, что он был слишком любопытным, работая на почте, где он вскрывал частную корреспонденцию. Коротышка поделился с Джеком информацией, что он знает место расположение крупнейшего месторождения. Они решают направиться в это далекое место, а для этого надо купить собачью упряжку. Так происходит знакомство Джека с могучей и злой полусобакой-полуволком по кличке Бак.
Он выкупает Бака за очень большие деньги $250, чтобы спасти его от смерти от рук беспринципного англичанина, который тоже направляется на Юкатан. По дороге на прииски Джек и Коротышка спасают от волков женщину Клэр Блэйк, чей муж ушел за подмогой и который оказался именно тем человеком, кому было адресовано письмо. Джек любит собак и ему удалось подружиться с Баком и именно собака выиграла для них пари в $1000, протянув в упряжке непомерный для одной собаки груз в пол тонны, протянув его сто ярдов. Купив снаряжение, троица отправляется в путь…-За перевод вырезанных фрагментов спасибо М_Васильев, за озвучку спасибо Andi999.
| IMDb | Сэмпл-Качество: BDRemux 1080p (The Call of the Wild 1935 1080p Blu-ray AVC DTS-HD MA 1.0-ESiR)
Контейнер: MKV
Видео: AVC, 1920x1080 (1.37:1), 23.976 fps, 28493 kbps
Аудио 1: Русский AC3 2.0, 48 kHz, 192 kbps
Аудио 2: Английский DTS-HD MA 1.0, 48 kHz, 1027 kbps, 24-bit (DTS Core: 1.0, 48 kHz, 768 kbps, 24-bit)
Аудио 3: Английский AC3 1.0, 48 kHz, 192 kbps — Комментарии
Формат субтитров: softsub (SRT)

Скриншоты


MI

General
General
Unique ID : 178949966318573846741715538278647711815 (0x86A08286B59D95D6A55006D84031C847)
Complete name : The.Call.of.the.Wild.1935.BDRemux.mkv
Format : Matroska
Format version : Version 2
File size : 19.0 GiB
Duration : 1h 31mn
Overall bit rate mode : Variable
Overall bit rate : 29.7 Mbps
Movie name : The Call of the Wild / Зов предков (1935) – RuTracker
Encoded date : UTC 2015-04-02 20:56:14
Writing application : mkvmerge v7.5.0 ('Glass Culture') 64bit built on Jan 4 2015 16:48:44
Writing library : libebml v1.3.1 + libmatroska v1.4.2
Attachements : cover.jpg
Video
ID : 1
Format : AVC
Format/Info : Advanced Video Codec
Format profile : High@L4.1
Format settings, CABAC : Yes
Format settings, ReFrames : 4 frames
Codec ID : V_MPEG4/ISO/AVC
Duration : 1h 31mn
Bit rate mode : Variable
Maximum bit rate : 38.0 Mbps
Width : 1 920 pixels
Height : 1 080 pixels
Display aspect ratio : 16:9
Frame rate mode : Constant
Frame rate : 23.976 fps
Color space : YUV
Chroma subsampling : 4:2:0
Bit depth : 8 bits
Scan type : Progressive
Title : The Call of the Wild 1935 1080p Blu-ray AVC DTS-HD MA 1.0-ESiR
Language : English
Default : Yes
Forced : No
Audio #1
ID : 2
Format : AC-3
Format/Info : Audio Coding 3
Mode extension : CM (complete main)
Format settings, Endianness : Big
Codec ID : A_AC3
Duration : 1h 31mn
Bit rate mode : Constant
Bit rate : 192 Kbps
Channel(s) : 2 channels
Channel positions : Front: L R
Sampling rate : 48.0 KHz
Bit depth : 16 bits
Compression mode : Lossy
Stream size : 126 MiB (1%)
Title : VO (Светла + Andi)
Language : Russian
Default : Yes
Forced : No
Audio #2
ID : 3
Format : DTS
Format/Info : Digital Theater Systems
Format profile : MA / Core
Mode : 16
Format settings, Endianness : Big
Codec ID : A_DTS
Duration : 1h 31mn
Bit rate mode : Variable
Bit rate : Unknown / 768 Kbps
Channel(s) : 1 channel
Channel positions : Front: C
Sampling rate : 48.0 KHz
Bit depth : 24 bits
Compression mode : Lossless / Lossy
Title : Original
Language : English
Default : No
Forced : No
Audio #3
ID : 4
Format : AC-3
Format/Info : Audio Coding 3
Mode extension : CM (complete main)
Format settings, Endianness : Big
Codec ID : A_AC3
Duration : 1h 31mn
Bit rate mode : Constant
Bit rate : 192 Kbps
Channel(s) : 1 channel
Channel positions : Front: C
Sampling rate : 48.0 KHz
Bit depth : 16 bits
Compression mode : Lossy
Stream size : 126 MiB (1%)
Title : Commentary by Darwin Porter
Language : English
Default : No
Forced : No
Text #1
ID : 5
Format : UTF-8
Codec ID : S_TEXT/UTF8
Codec ID/Info : UTF-8 Plain Text
Language : English
Default : No
Forced : No
Text #2
ID : 6
Format : UTF-8
Codec ID : S_TEXT/UTF8
Codec ID/Info : UTF-8 Plain Text
Title : SDH
Language : English
Default : No
Forced : No
Text #3
ID : 7
Format : UTF-8
Codec ID : S_TEXT/UTF8
Codec ID/Info : UTF-8 Plain Text
Language : French
Default : No
Forced : No
Menu
00:00:00.000 : en:Chapter 01
00:04:34.315 : en:Chapter 02
00:11:49.792 : en:Chapter 03
00:14:03.092 : en:Chapter 04
00:18:27.523 : en:Chapter 05
00:20:45.202 : en:Chapter 06
00:34:03.332 : en:Chapter 07
00:42:35.678 : en:Chapter 08
00:45:20.843 : en:Chapter 09
00:52:53.003 : en:Chapter 10
00:58:07.233 : en:Chapter 11
01:02:40.756 : en:Chapter 12
01:06:04.961 : en:Chapter 13
01:10:30.226 : en:Chapter 14
01:11:57.021 : en:Chapter 15
01:15:29.274 : en:Chapter 16
01:19:19.796 : en:Chapter 17
01:21:12.242 : en:Chapter 18
01:25:39.384 : en:Chapter 19
01:29:57.475 : en:Chapter 20


Показать сообщения:    

Текущее время: 18-Дек 03:26

Часовой пояс: UTC ± 0


Вы не можете начинать темы
Вы не можете отвечать на сообщения
Вы не можете редактировать свои сообщения
Вы не можете удалять свои сообщения
Вы не можете голосовать в опросах
Вы не можете прикреплять файлы к сообщениям
Вы не можете скачивать файлы

!ВНИМАНИЕ!
Сайт не предоставляет электронные версии произведений, а занимается лишь коллекционированием и каталогизацией ссылок, присылаемых и публикуемых на форуме нашими читателями. Если вы являетесь правообладателем какого-либо представленного материала и не желаете, чтобы ссылка на него находилась в нашем каталоге, свяжитесь с нами, и мы незамедлительно удалим ее. Файлы для обмена на трекере предоставлены пользователями сайта, и администрация не несет ответственности за их содержание. Просьба не заливать файлы, защищенные авторскими правами, а также файлы нелегального содержания!