Важное объявление!
У Нас Все раздачи мультитрекерные, при нуле пиров в релизах, можете смело вставать на закачку!
 
Автор Сообщение

HUNTER

Стаж:
4 года 5 месяцев
Сообщений:
60844

Репутация: 101

[+] [-]
Вне форума [Профиль] [ЛС]

Зов моря
Год выпуска: 2007
Страна: Россия, Киностудия "Центр национального фильма"
Жанр: Документальный
Продолжительность: 00:25:56
Перевод: Не требуется
Русские субтитры: нет
Режиссер: Александр Трофимов
Описание: Фильм посвящен людям древней и одновременно новой профессии - современным аквалангистам. Не путать с туристами-дайверами! Они не ищут приключений, морское дно для них – источник их заработка. В любую погоду, летом и зимой, они добывают моллюсков, а затем продают их, чтобы прокормить себя и свою семью.
Зрители познакомятся с охотой и ловлей моллюсков на больших глубинах, увидят редкие кадры ночной охоты на опасных морских обитателей.
Доп. информация: Авторы: Александр Трофимов, Виктор Лебединский

MI

General
ID : 1 (0x1)
Complete name : C:Зов моря.2007_DVB_by_dean10.ts
Format : MPEG-TS
File size : 700 MiB
Duration : 25mn 56s
Overall bit rate mode : Variable
Overall bit rate : 3 769 Kbps
Video
ID : 221 (0xDD)
Menu ID : 1 (0x1)
Format : MPEG Video
Format version : Version 2
Format profile : Main@Main
Format settings, BVOP : Yes
Format settings, Matrix : Custom
Codec ID : 2
Duration : 25mn 57s
Bit rate mode : Variable
Bit rate : 3 389 Kbps
Maximum bit rate : 3 400 Kbps
Width : 720 pixels
Height : 576 pixels
Display aspect ratio : 4:3
Frame rate : 25.000 fps
Standard : PAL
Color space : YUV
Chroma subsampling : 4:2:0
Bit depth : 8 bits
Scan type : Interlaced
Scan order : Top Field First
Compression mode : Lossy
Bits/(Pixel*Frame) : 0.327
Stream size : 629 MiB (90%)
Audio
ID : 222 (0xDE)
Menu ID : 1 (0x1)
Format : MPEG Audio
Format version : Version 1
Format profile : Layer 2
Codec ID : 3
Duration : 25mn 56s
Bit rate mode : Constant
Bit rate : 192 Kbps
Channel(s) : 2 channels
Sampling rate : 48.0 KHz
Compression mode : Lossy
Stream size : 35.6 MiB (5%)
Language : English
Качество: DVB
Формат: TS
Видео кодек: MPEG2
Аудио кодек: MPEG1
Видео: MPEG2 Video 720x576 (4:3) 25.00fps 5 389 Kbps, 0.327
Аудио: MPEG Audio 48000Hz stereo 256 Кбит/сек

Скриншоты


_________________
Показать сообщения:    

Текущее время: Сегодня 12:21

Часовой пояс: GMT



Вы не можете начинать темы
Вы не можете отвечать на сообщения
Вы не можете редактировать свои сообщения
Вы не можете удалять свои сообщения
Вы не можете голосовать в опросах
Вы не можете прикреплять файлы к сообщениям
Вы не можете скачивать файлы
Наши партнеры: интернет магазин Ивановского трикотажа textilla.ru