Важное объявление!
У Нас Все раздачи мультитрекерные, при нуле пиров в релизах, можете смело вставать на закачку!
 
Автор Сообщение

HUNTER

Стаж:
4 года 7 месяцев
Сообщений:
61439

Репутация: 101

[+] [-]
Вне форума [Профиль] [ЛС]

Злоумышленник 2 / Тяжёлая утрата / Bereavement / Malevolence: Bereavement«There are some evils...so unspeakable...they will scar you forever»-
Страна: США
Жанр: ужасы, триллер, криминал
Год выпуска: 2010
Продолжительность: 01:47:22-Перевод: Одноголосый закадровый - viare - по переводу Max_FlexO
Оригинальная аудиодорожка: English
Cубтитры: Русские (полные - Max_FlexO), English (full + full SDH)
Навигация по главам: присутствует - 12 глав-Режиссер: Стивен Мена / Stevan Mena
В ролях: Александра Даддарио, Спенсер Лист, Бретт Рикаби, Майкл Бьен, Нолан Фанк, Kathryn Meisle, Пейтон Лист, Джон Сэвидж, Валентина Де Анджелис, Грег Вуд-Описание: Похищенный психопатом, 6-летний Мартин Бристол вынужден испытывать адские муки и издевательства от своего надзирателя. Между тем, 17-летняя Элисон, переехавшая жить в пустынную местность вместе с дядей, обнаруживает эти ужасные вещи, происходящие на соседней ферме…-
-Качество видео: BDRip 720p | исх. Bereavement 2010 1080p USA Blu-ray AVC Dolby TrueHD 5.1 (thx Fleaseeks!)
Формат: MKV-Видео: 1280x534 (2.40:1), 23.976 fps, H.264, 7578 kb/s, 0.452 bit/pixel
Аудио №1: 48.0 kHz, AC3 Dolby Digital, 3/2 (L,C,R,l,r) + LFE ch, ~448.00 kbps avg | Одноголосый закадровый - viare - по переводу Max_FlexO
Аудио №2: 48.0 kHz, AC3 Dolby Digital, 3/2 (L,C,R,l,r) + LFE ch, ~640.00 kbps avg | English
Субтитры №1: Русские (полные - Max_FlexO) | *.srt
Субтитры №2: English (full) | *.srt
Субтитры №3: English (full SDH) | *.srt-

Видеоряд от JewelBox

Bereavement 2010 Unrated 720p BluRay DD5.1 x264-JewelBox
CONTAINER FORMAT..: Matroska
SIZE..............: 6.31 GiB
RUNTIME...........: 01:47:22
FRAMERATE.........: 23.976 fps
RESOLUTION........: 1280x534
ASPECT RATIO......: 2.40:1
VIDEO CODEC.......: x264, High@L4.1, ref=12
VIDEO BITRATE.....: 7578 Kbps
AUDIO #1..........: English AC-3 6ch @ 640 Kbps
AUDIO #2..........: English AC-3 2ch @ 192 Kbps (Commentary with Writer/Producer/Director - Stevan Mena)
SUBTITLES.........: Eng, Eng SDH, Spa (.srt)
CHAPTERS..........: Included
SOURCE............: Bereavement 2010 1080p USA Blu-ray AVC Dolby TrueHD 5.1 (thx Fleaseeks!)
ENCODER...........: FreddKruger
RELEASE DATE......: 26/07/2016
Notes:
US source is unrated version.
There is at least one longer & more graphic torture scene through frames 61665-62927, which is missing on GER disc.
Comparison: GER vs. US (thx HDMike1988!)

x264 [info]: frame I:1157 Avg QP:12.97 size:137100
x264 [info]: frame P:31693 Avg QP:13.64 size: 71691
x264 [info]: frame B:121614 Avg QP:15.13 size: 30192
x264 [info]: consecutive B-frames: 1.9% 2.6% 6.9% 17.6% 17.1% 30.7% 7.6% 8.3% 2.1% 1.0% 0.9% 1.8% 0.5% 0.3% 0.1% 0.2% 0.4%
x264 [info]: kb/s:7577.95-Source / JewelBox / [url=viewtopic.php?t=4062548]CRiSC (rated version)[/url]









MediaInfo

General
Unique ID : 233171296051303063018336686519044853077 (0xAF6B287ACB1C3B138B97886A45BCCD55)
Complete name : D:\Movie\Encode\Bereavement.2010.BDRip 720p.x264-tRuAVC.mkv
Format : Matroska
Format version : Version 2
File size : 6.65 GiB
Duration : 1h 47mn
Overall bit rate : 8 861 Kbps
Movie name : Bereavement (2010) - BDRip 720p © Fredd Kruger
Encoded date : UTC 2016-08-01 16:12:13
Writing application : mkvmerge v9.3.1 ('Mask Machine') 64bit
Writing library : libebml v1.3.4 + libmatroska v1.4.5
Attachements : cover.jpg
Video
ID : 1
Format : AVC
Format/Info : Advanced Video Codec
Format profile : High@L4.1
Format settings, CABAC : Yes
Format settings, ReFrames : 12 frames
Codec ID : V_MPEG4/ISO/AVC
Duration : 1h 47mn
Bit rate : 7 404 Kbps
Width : 1 280 pixels
Height : 534 pixels
Display aspect ratio : 2.40:1
Frame rate mode : Constant
Frame rate : 23.976 fps
Color space : YUV
Chroma subsampling : 4:2:0
Bit depth : 8 bits
Scan type : Progressive
Bits/(Pixel*Frame) : 0.452
Stream size : 5.55 GiB (84%)
Title : Underneath 1995 720p BluRay DD5.1 x264-JewelBox
Writing library : x264 core 148 r2705kMod 3f5ed56
Encoding settings : cabac=1 / ref=12 / deblock=1:-3:-3 / analyse=0x3:0x133 / me=umh / subme=11 / psy=1 / fade_compensate=0.00 / psy_rd=0.95:0.00 / mixed_ref=1 / me_range=48 / chroma_me=1 / trellis=2 / 8x8dct=1 / cqm=0 / deadzone=21,11 / fast_pskip=0 / chroma_qp_offset=-2 / threads=12 / lookahead_threads=3 / sliced_threads=0 / nr=0 / decimate=1 / interlaced=0 / bluray_compat=0 / constrained_intra=0 / fgo=0 / bframes=16 / b_pyramid=2 / b_adapt=2 / b_bias=0 / direct=3 / weightb=1 / open_gop=0 / weightp=2 / keyint=250 / keyint_min=23 / scenecut=40 / intra_refresh=0 / rc_lookahead=60 / rc=crf / mbtree=0 / crf=14.5000 / qcomp=0.70 / qpmin=0 / qpmax=69 / qpstep=4 / vbv_maxrate=62500 / vbv_bufsize=78125 / crf_max=0.0 / nal_hrd=none / filler=0 / ip_ratio=1.40 / pb_ratio=1.30 / aq=1:0.88
Language : English
Default : Yes
Forced : Yes
Color range : Limited
Color primaries : BT.709
Transfer characteristics : BT.709
Matrix coefficients : BT.709
Audio #1
ID : 2
Format : AC-3
Format/Info : Audio Coding 3
Mode extension : CM (complete main)
Format settings, Endianness : Big
Codec ID : A_AC3
Duration : 1h 47mn
Bit rate mode : Constant
Bit rate : 448 Kbps
Channel(s) : 6 channels
Channel positions : Front: L C R, Side: L R, LFE
Sampling rate : 48.0 KHz
Compression mode : Lossy
Stream size : 344 MiB (5%)
Title : Одноголосый закадровый - viare
Language : Russian
Default : Yes
Forced : No
Audio #2
ID : 3
Format : AC-3
Format/Info : Audio Coding 3
Mode extension : CM (complete main)
Format settings, Endianness : Big
Codec ID : A_AC3
Duration : 1h 47mn
Bit rate mode : Constant
Bit rate : 640 Kbps
Channel(s) : 6 channels
Channel positions : Front: L C R, Side: L R, LFE
Sampling rate : 48.0 KHz
Compression mode : Lossy
Stream size : 492 MiB (7%)
Language : English
Default : No
Forced : No
Audio #3
ID : 4
Format : AC-3
Format/Info : Audio Coding 3
Format profile : Dolby Digital
Mode extension : CM (complete main)
Format settings, Endianness : Big
Codec ID : A_AC3
Duration : 1h 47mn
Bit rate mode : Constant
Bit rate : 192 Kbps
Channel(s) : 2 channels
Channel positions : Front: L R
Sampling rate : 48.0 KHz
Compression mode : Lossy
Stream size : 147 MiB (2%)
Title : Commentary with Writer/Producer/Director - Stevan Mena
Language : English
Default : No
Forced : No
Text #1
ID : 5
Format : UTF-8
Codec ID : S_TEXT/UTF8
Codec ID/Info : UTF-8 Plain Text
Title : полные - Max_FlexO
Language : Russian
Default : No
Forced : No
Text #2
ID : 6
Format : UTF-8
Codec ID : S_TEXT/UTF8
Codec ID/Info : UTF-8 Plain Text
Title : full
Language : English
Default : No
Forced : No
Text #3
ID : 7
Format : UTF-8
Codec ID : S_TEXT/UTF8
Codec ID/Info : UTF-8 Plain Text
Title : full SDH
Language : English
Default : No
Forced : No
Menu
00:00:00.000 : :Chapter 1
00:08:59.121 : :Chapter 2
00:18:59.513 : :Chapter 3
00:27:21.222 : :Chapter 4
00:37:37.880 : :Chapter 5
00:45:46.994 : :Chapter 6
00:56:10.200 : :Chapter 7
01:06:19.016 : :Chapter 8
01:17:17.966 : :Chapter 9
01:25:51.104 : :Chapter 10
01:35:03.739 : :Chapter 11
01:42:02.074 : :Chapter 12
Цитата:
Цитата:

  • Русские субтитры и озвучка взяты с этой [url=viewtopic.php?t=4096634]раздачи[/url], спасибо [url=profile.php?mode=viewprofile&u=25879555]GORENOISE[/url]

_________________
Показать сообщения:    

Текущее время: Сегодня 21:15

Часовой пояс: GMT



Вы не можете начинать темы
Вы не можете отвечать на сообщения
Вы не можете редактировать свои сообщения
Вы не можете удалять свои сообщения
Вы не можете голосовать в опросах
Вы не можете прикреплять файлы к сообщениям
Вы не можете скачивать файлы
Наши партнеры: интернет магазин Ивановского трикотажа textilla.ru