Ивановский Торрент трекер
Яндекс.Погода
 

[Цитировать]
HUNTER

Зловещий священник / Пугающие до дрожи / Учащающий пульс / The Evil Clergyman / Pulse Pounders
Страна: Италия
Студия: Empire Pictures
Жанр: ужасы, фантастика
Год выпуска: 1988
Продолжительность: 00:28:58
Перевод: Одноголосый закадровый Хэм
Оригинальная аудиодорожка: английский
Режиссер: Чарльз Бэнд / Charles Band
В ролях: Джеффри Комбс / Jeffrey Combs, Барбара Крэмптон / Barbara Crampton, Дэвид Уорнер / David Warner, Дэвид Гэйл / David Gale, Уна Брэндон-Джонс / Una Brandon-Jones
Описание: По мотивам книги Г. Ф. Лавкрафта "Зловещий Священник". Молодая женщина возвращается в старинный замок, где она жила "во грехе" с католическим священником пока он не покончил с собой через повешенье...
"В 1988 году Empire Pictures сняла три короткометражки для антологии под названием "Учащающий пульс". Однако 35 мм плёночный негатив фильма был потерян ещё до завершения финального монтажа и начала работы со звуком. 26 лет спустя была найдена VHS копия этих материалов, и было принято решение восстановить первый эпизод под названием "Зловещий священник". Хотя картинка после реставрации не выглядела трансфером с 35 мм плёнки, создатели решили, что фильм всё же заслуживает получить звук и оригинальный оркестровый скор. И сейчас спустя более двух десятков лет все кто знал об этом проекте получают возможность его увидеть. Редкое и уникальное стечение обстоятельств для фильма выход которого занял 27 лет". - От авторов фильма -
Мировая премьера фильма состялась 11 августа 2012.
Оригинальный DVD скачан с КГ
Звуковая дорожка взята из раздачи sergey71s на Кинозале.
Бонусы: документальный фильм с премьеры, трейлеры фильмов компании, ....
Меню: статичное
Сэмпл
IMDb
КиноПоиск
Видео: MPEG Video, NTSC, VBR, 720x480, 16:9, 23.976 fps, ~6684,02 Kbps
Аудио 1: Русский, AC-3, 192 Kbps, 2 channels, 48.0 KHz
Аудио 2: Английский, AC-3, 192 Kbps, 2 channels, 48.0 KHz
Тип релиза: DVD5 (Custom)
Контейнер: DVD-Video

MediaInfo


General
Complete name : F:\Зловещий священник Pulse Pounders The Evil Clergyman (Чарльз Бэнд) [1988]\VIDEO_TS\VTS_03_1.VOB
Format : MPEG-PS
File size : 1 024 MiB
Duration : 21mn 22s
Overall bit rate mode : Variable
Overall bit rate : 6 700 Kbps
Video
ID : 224 (0xE0)
Format : MPEG Video
Format version : Version 2
Format profile : Main@Main
Format settings, BVOP : Yes
Format settings, Matrix : Custom
Format settings, GOP : M=3, N=12
Duration : 21mn 22s
Bit rate mode : Variable
Bit rate : 6 182 Kbps
Maximum bit rate : 7 700 Kbps
Width : 720 pixels
Height : 480 pixels
Display aspect ratio : 16:9
Frame rate : 23.976 fps
Standard : NTSC
Color space : YUV
Chroma subsampling : 4:2:0
Bit depth : 8 bits
Scan type : Progressive
Scan order : 2:3 Pulldown
Compression mode : Lossy
Bits/(Pixel*Frame) : 0.746
Time code of first frame : 00:00:00:00
Time code source : Group of pictures header
Stream size : 945 MiB (92%)
Color primaries : BT.601 NTSC
Transfer characteristics : BT.601
Matrix coefficients : BT.601
Audio #1
ID : 189 (0xBD)-128 (0x80)
Format : AC-3
Format/Info : Audio Coding 3
Mode extension : CM (complete main)
Format settings, Endianness : Big
Muxing mode : DVD-Video
Duration : 21mn 21s
Bit rate mode : Constant
Bit rate : 192 Kbps
Channel(s) : 2 channels
Channel positions : Front: L R
Sampling rate : 48.0 KHz
Bit depth : 16 bits
Compression mode : Lossy
Stream size : 29.3 MiB (3%)
Audio #2
ID : 189 (0xBD)-129 (0x81)
Format : AC-3
Format/Info : Audio Coding 3
Mode extension : CM (complete main)
Format settings, Endianness : Big
Muxing mode : DVD-Video
Duration : 21mn 21s
Bit rate mode : Constant
Bit rate : 192 Kbps
Channel(s) : 2 channels
Channel positions : Front: L R
Sampling rate : 48.0 KHz
Bit depth : 16 bits
Compression mode : Lossy
Stream size : 29.3 MiB (3%)

Скриншоты меню

Скриншоты

Скриншоты бонусных материалов

Скриншоты использованных программ

PgcDemux 1.2.0.4 - Разборка DVD
VirtualDubMod - извлечение русской дорожки в формате *.mp3 из файла *.avi
BeSweet +BeLight - Кодирование звуковых файлов
Adobe Audition CC - Синхронизация звуковых файлов
Minnetonka SurCode for Dolby Digital - Кодирование звуковых файлов
Muxman - сборка DVD
DVDRemake Pro - реавторинг DVD
CyberLink PowerDVD - Проверка правильности расположения дорожек и субтитров, проверка работы на софтплеере
MPEG2Cut - сэмпл
PgcDemux

VirtualDubMod

BeSweet

Adobe Audition

Minnetonka

MuxMan

DVDRemake

CyberLink PowerDVD

DVD.info исходного диска


General
Complete name : F:\Proekt\The.Evil.Clergyman.1987\VIDEO_TS\VTS_03_1.VOB
Format : MPEG-PS
File size : 1 024 MiB
Duration : 21mn 57s
Overall bit rate mode : Variable
Overall bit rate : 6 518 Kbps
Video
ID : 224 (0xE0)
Format : MPEG Video
Format version : Version 2
Format profile : Main@Main
Format settings, BVOP : Yes
Format settings, Matrix : Custom
Format settings, GOP : M=3, N=12
Duration : 21mn 57s
Bit rate mode : Variable
Bit rate : 6 196 Kbps
Maximum bit rate : 7 700 Kbps
Width : 720 pixels
Height : 480 pixels
Display aspect ratio : 16:9
Frame rate : 23.976 fps
Standard : NTSC
Color space : YUV
Chroma subsampling : 4:2:0
Bit depth : 8 bits
Scan type : Progressive
Scan order : 2:3 Pulldown
Compression mode : Lossy
Bits/(Pixel*Frame) : 0.748
Time code of first frame : 00:00:00:00
Time code source : Group of pictures header
Stream size : 973 MiB (95%)
Color primaries : BT.601 NTSC
Transfer characteristics : BT.601
Matrix coefficients : BT.601
Audio
ID : 189 (0xBD)-128 (0x80)
Format : AC-3
Format/Info : Audio Coding 3
Mode extension : CM (complete main)
Format settings, Endianness : Big
Muxing mode : DVD-Video
Duration : 21mn 57s
Bit rate mode : Constant
Bit rate : 192 Kbps
Channel(s) : 2 channels
Channel positions : Front: L R
Sampling rate : 48.0 KHz
Bit depth : 16 bits
Compression mode : Lossy
Stream size : 30.2 MiB (3%)


Показать сообщения:    

Текущее время: 13-Дек 13:08

Часовой пояс: UTC ± 0


Вы не можете начинать темы
Вы не можете отвечать на сообщения
Вы не можете редактировать свои сообщения
Вы не можете удалять свои сообщения
Вы не можете голосовать в опросах
Вы не можете прикреплять файлы к сообщениям
Вы не можете скачивать файлы

!ВНИМАНИЕ!
Сайт не предоставляет электронные версии произведений, а занимается лишь коллекционированием и каталогизацией ссылок, присылаемых и публикуемых на форуме нашими читателями. Если вы являетесь правообладателем какого-либо представленного материала и не желаете, чтобы ссылка на него находилась в нашем каталоге, свяжитесь с нами, и мы незамедлительно удалим ее. Файлы для обмена на трекере предоставлены пользователями сайта, и администрация не несет ответственности за их содержание. Просьба не заливать файлы, защищенные авторскими правами, а также файлы нелегального содержания!