Ивановский Торрент трекер
Яндекс.Погода
 

[Цитировать]
HUNTER

Зловещие мертвецы 3: Армия Тьмы / Evil Dead 3 : Army of Darkness
Режиссерская версия-Год выпуска: 1992
Страна: США
Жанр: Ужасы, боевик, фэнтези, комедия
Продолжительность: 01:36:22
Перевод: Двухголосый, многоголосый, авторский одноголосый.
Субтитры: SRT; русские (Reanimator1911), русские (Киномания), английские.
Навигация по главам: Есть (Сохранены оригинальные чаптеры как на Blu-Ray)-Режиссёр: Сэм Рэйми / Sam Raimi
В ролях: Брюс Кэмпбелл, Эмбет Дэвидц, Маркус Гилберт, Иан Эберкромби, Ричард Гроув, Тимоти Пэтрик Куилл, Майкл Эрл Рид, Бриджет Фонда-Описание: Благодаря козням сил Зла, герой фильма, вооруженный бензопилой и дробовиком, попадает в Англию времен короля Артура. Ему предстоит сразиться с армией мертвецов, возглавляемой безжалостным демоном - его собственным двойником! Единственный способ вернуться домой - найти таинственную древнюю книгу "Некрономикон", с помощью которой у него появится шанс отправить легионы мертвецов в ад навсегда.-Источник: BD Remux (немецкий Blu-ray выпущенный 26.04.2013 Koch Media)
Качество: BDRip 720p
Формат: MKV
Видео кодек: H264/AVC
Аудио кодек: AC3
Видео: 1280x720, 23,976 fps, 7,530 Kbps, 0.341 bit/pixel
Аудио 1: Russian: AC3 / 5.1 / 48 kHz / 16-bit / 448 Kbps Двухголосый закадровый [Гланц и Королёва]
Аудио 2: Russian: AC3 / 5.1 / 48 kHz / 16-bit / 640 Kbps Многоголосый закадровый [Киномания]
Аудио 3: Russian: AC3 / 5.1 / 48 kHz / 16-bit / 640 Kbps Авторский одноголосый закадровый [Михалев + вставки Визгунова]
Аудио 4: Russian: AC3 / 5.1 / 48 kHz / 16-bit / 640 Kbps Авторский одноголосый закадровый [Визгунов]
Аудио 5: Russian: AC3 / 5.1 / 48 kHz / 16-bit / 640 Kbps Авторский одноголосый закадровый [Гранкин]
Аудио 6: English: AC3 / 5.1 / 48 kHz / 16-bit / 448 Kbps [Original]-

Рейтинг

Рейтинг:

MediaInfo

Complete name : Army.of.Darkness.BDRip 720p(1992).mkv
Format : Matroska
Format version : Version 4 / Version 2
File size : 7.39 GiB
Duration : 1h 36mn
Overall bit rate : 11.0 Mbps
Encoded date : UTC 2013-09-29 13:33:09
Writing application : mkvmerge v6.4.1 ('Omega Point') built on Sep 16 2013 22:05:10
Writing library : libebml v1.3.0 + libmatroska v1.4.1
Video
ID : 1
Format : AVC
Format/Info : Advanced Video Codec
Format profile : High@L4.1
Format settings, CABAC : Yes
Format settings, ReFrames : 9 frames
Codec ID : V_MPEG4/ISO/AVC
Duration : 1h 36mn
Bit rate : 7 530 Kbps
Width : 1 280 pixels
Height : 720 pixels
Display aspect ratio : 16:9
Frame rate mode : Constant
Frame rate : 23.976 fps
Color space : YUV
Chroma subsampling : 4:2:0
Bit depth : 8 bits
Scan type : Progressive
Bits/(Pixel*Frame) : 0.341
Stream size : 4.92 GiB (67%)
Title : Army of Darkness (1992) BDRip 720p @ 7530 Kbps
Writing library : x264 core 138 r2358 9e941d1
Encoding settings : cabac=1 / ref=9 / deblock=1:-2:-2 / analyse=0x3:0x113 / me=umh / subme=9 / psy=1 / psy_rd=1.00:0.10 / mixed_ref=1 / me_range=32 / chroma_me=1 / trellis=2 / 8x8dct=1 / cqm=0 / deadzone=21,11 / fast_pskip=0 / chroma_qp_offset=-3 / threads=3 / lookahead_threads=1 / sliced_threads=0 / slices=4 / nr=0 / decimate=0 / interlaced=0 / bluray_compat=0 / constrained_intra=0 / bframes=5 / b_pyramid=2 / b_adapt=2 / b_bias=0 / direct=3 / weightb=1 / open_gop=0 / weightp=2 / keyint=240 / keyint_min=22 / scenecut=40 / intra_refresh=0 / rc_lookahead=40 / rc=2pass / mbtree=1 / bitrate=7530 / ratetol=1.0 / qcomp=0.60 / qpmin=0 / qpmax=69 / qpstep=4 / cplxblur=20.0 / qblur=0.5 / ip_ratio=1.40 / aq=1:1.00
Language : English
Default : Yes
Forced : No
Audio #1
ID : 2
Format : AC-3
Format/Info : Audio Coding 3
Mode extension : CM (complete main)
Format settings, Endianness : Big
Codec ID : A_AC3
Duration : 1h 36mn
Bit rate mode : Constant
Bit rate : 448 Kbps
Channel(s) : 6 channels
Channel positions : Front: L C R, Side: L R, LFE
Sampling rate : 48.0 KHz
Bit depth : 16 bits
Compression mode : Lossy
Stream size : 309 MiB (4%)
Title : Rus DUB [Гланц и Королёва] AC3 @ 448 Kbps
Language : Russian
Default : Yes
Forced : No
Audio #2
ID : 3
Format : AC-3
Format/Info : Audio Coding 3
Mode extension : CM (complete main)
Format settings, Endianness : Big
Codec ID : A_AC3
Duration : 1h 36mn
Bit rate mode : Constant
Bit rate : 640 Kbps
Channel(s) : 6 channels
Channel positions : Front: L C R, Side: L R, LFE
Sampling rate : 48.0 KHz
Bit depth : 16 bits
Compression mode : Lossy
Stream size : 441 MiB (6%)
Title : Rus MVO [Киномания] AC3 @ 640 Kbps
Language : Russian
Default : No
Forced : No
Audio #3
ID : 4
Format : AC-3
Format/Info : Audio Coding 3
Mode extension : CM (complete main)
Format settings, Endianness : Big
Codec ID : A_AC3
Duration : 1h 36mn
Bit rate mode : Constant
Bit rate : 640 Kbps
Channel(s) : 6 channels
Channel positions : Front: L C R, Side: L R, LFE
Sampling rate : 48.0 KHz
Bit depth : 16 bits
Compression mode : Lossy
Stream size : 441 MiB (6%)
Title : Rus AVO [Михалев + вставки Визгунова] AC3 @ 640 Kbps
Language : Russian
Default : No
Forced : No
Audio #4
ID : 5
Format : AC-3
Format/Info : Audio Coding 3
Mode extension : CM (complete main)
Format settings, Endianness : Big
Codec ID : A_AC3
Duration : 1h 36mn
Bit rate mode : Constant
Bit rate : 640 Kbps
Channel(s) : 6 channels
Channel positions : Front: L C R, Side: L R, LFE
Sampling rate : 48.0 KHz
Bit depth : 16 bits
Compression mode : Lossy
Stream size : 441 MiB (6%)
Title : Rus AVO [Визгунов] AC3 @ 640 Kbps
Default : No
Forced : No
Audio #5
ID : 6
Format : AC-3
Format/Info : Audio Coding 3
Mode extension : CM (complete main)
Format settings, Endianness : Big
Codec ID : A_AC3
Duration : 1h 36mn
Bit rate mode : Constant
Bit rate : 640 Kbps
Channel(s) : 6 channels
Channel positions : Front: L C R, Side: L R, LFE
Sampling rate : 48.0 KHz
Bit depth : 16 bits
Compression mode : Lossy
Stream size : 441 MiB (6%)
Title : Rus AVO [Гранкин] AC3 @ 640 Kbps
Default : No
Forced : No
Audio #6
ID : 7
Format : AC-3
Format/Info : Audio Coding 3
Mode extension : CM (complete main)
Format settings, Endianness : Big
Codec ID : A_AC3
Duration : 1h 36mn
Bit rate mode : Constant
Bit rate : 448 Kbps
Channel(s) : 6 channels
Channel positions : Front: L C R, Side: L R, LFE
Sampling rate : 48.0 KHz
Bit depth : 16 bits
Compression mode : Lossy
Stream size : 309 MiB (4%)
Language : English
Default : No
Forced : No
Text #1
ID : 8
Format : UTF-8
Codec ID : S_TEXT/UTF8
Codec ID/Info : UTF-8 Plain Text
Title : Reanimator1911
Language : Russian
Default : Yes
Forced : No
Text #2
ID : 9
Format : UTF-8
Codec ID : S_TEXT/UTF8
Codec ID/Info : UTF-8 Plain Text
Title : Киномания
Language : Russian
Default : No
Forced : No
Text #3
ID : 10
Format : UTF-8
Codec ID : S_TEXT/UTF8
Codec ID/Info : UTF-8 Plain Text
Language : English
Default : No
Forced : No
Menu
00:00:00.000 : en:Chapter 1
00:03:14.319 : en:Chapter 2
00:09:24.272 : en:Chapter 3
00:19:25.414 : en:Chapter 4
00:23:13.100 : en:Chapter 5
00:25:52.801 : en:Chapter 6
00:31:41.232 : en:Chapter 7
00:41:40.581 : en:Chapter 8
00:50:15.679 : en:Chapter 9
00:54:57.502 : en:Chapter 10
00:59:03.998 : en:Chapter 11
01:01:53.376 : en:Chapter 12
01:12:45.319 : en:Chapter 13
01:23:39.848 : en:Chapter 14
01:26:31.436 : en:Chapter 15
01:30:57.743 : en:Chapter 16
01:36:22.151 : en:Chapter 17

Скриншоты

Показать сообщения:    

Текущее время: 23-Окт 16:15

Часовой пояс: UTC - 1


Вы не можете начинать темы
Вы не можете отвечать на сообщения
Вы не можете редактировать свои сообщения
Вы не можете удалять свои сообщения
Вы не можете голосовать в опросах
Вы не можете прикреплять файлы к сообщениям
Вы не можете скачивать файлы

!ВНИМАНИЕ!
Сайт не предоставляет электронные версии произведений, а занимается лишь коллекционированием и каталогизацией ссылок, присылаемых и публикуемых на форуме нашими читателями. Если вы являетесь правообладателем какого-либо представленного материала и не желаете, чтобы ссылка на него находилась в нашем каталоге, свяжитесь с нами, и мы незамедлительно удалим ее. Файлы для обмена на трекере предоставлены пользователями сайта, и администрация не несет ответственности за их содержание. Просьба не заливать файлы, защищенные авторскими правами, а также файлы нелегального содержания!