Ивановский Торрент трекер
Яндекс.Погода
 

[Цитировать]
димитри37

Зловещие мертвецы 3: Армия Тьмы / Evil Dead 3 / Army of Darkness
Режиссёрская версия / Director's Cut
Страна: США
Студия: Universal
Жанр: Ужасы, боевик, фэнтези, комедия
Год выпуска: 1992
Продолжительность: 01:36:22
Перевод: Профессиональный (многоголосый закадровый), Авторский (одноголосый закадровый)
Cубтитры: Русские (Reanimator1911), Русские (Киномания), Английские
Режиссер: Сэм Рэйми / Sam Raimi
Сценарий: Сэм Рэйми, Айван Рэйми
Продюсер: Роберт Дж. Тейперт, Брюс Кэмпбелл, Дино Де Лаурентис
Оператор: Билл Поуп
Композитор: Джозеф ЛоДука
В ролях: Брюс Кэмпбелл, Эмбет Дэвидц, Маркус Гилберт, Иан Эберкромби, Ричард Гроув, Тимоти Пэтрик Куилл, Майкл Эрл Рид, Бриджет Фонда
Описание: Благодаря козням сил Зла, герой фильма, вооруженный бензопилой и дробовиком, попадает в Англию времен короля Артура. Ему предстоит сразиться с армией мертвецов, возглавляемой безжалостным демоном - его собственным двойником! Единственный способ вернуться домой - найти таинственную древнюю книгу "Некрономикон", с помощью которой у него появится шанс отправить легионы мертвецов в ад навсегда.

Тип релиза: BDRemux 1080p
Контейнер: MKV
Видео кодек: AVC
Аудио кодек: DTS, AC3 |
Видео: 1920x1080 at 23.976 fps, MPEG-4 AVC, ~17991 kbps avg
Аудио №1: 48 kHz, AC3, 6ch ~448 kbps avg /RUS/ Пётр Гланц и Инна Королёва
Аудио №2: 48 kHz, DTS 5.1 ~1510 kbps avg /RUS/ Киномания
Аудио №3: 48 kHz, DTS 5.1 ~1510 kbps avg /RUS/ Михалёв (От театральной версии + вставки Визгунова)
Аудио №4: 48 kHz, DTS 5.1 ~1510 kbps avg /RUS/ Визгунов
Аудио №5: 48 kHz, DTS 5.1 ~768 kbps avg /RUS/ Гранкин
Аудио №6: 48 kHz, AC3, 2ch ~192.00 kbps avg /RUS/ Готлиб
Аудио №7: 48 kHz, AC3, 6ch ~448 kbps avg /ENG/ Оригинал
Аудио №8: 48 kHz, AC3, 2ch ~320.00 kbps avg /ENG/ Комментарии
Формат субтитров: softsub (SRT)
Оригинальные главы сохранены.

MediaInfo

General
Unique ID : 240394924711396659139322697991377720755 (0xB4DA60DEB1A40EE2A2271AA566F915B3)
Complete name : E:\Remux\Army.of.Darkness.1992.Director's.Cut.BDRemux.1080p.AVC.6xRus.Eng.mkv
Format : Matroska
Format version : Version 4 / Version 2
File size : 16.6 GiB
Duration : 1h 36mn
Overall bit rate mode : Variable
Overall bit rate : 24.7 Mbps
Encoded date : UTC 2013-07-05 01:49:59
Writing application : mkvmerge v6.3.0 ('You can't stop me!') built on Jun 28 2013 20:09:41
Writing library : libebml v1.3.0 + libmatroska v1.4.0
Video
ID : 1
Format : AVC
Format/Info : Advanced Video Codec
Format profile : High@L4.1
Format settings, CABAC : Yes
Format settings, ReFrames : 4 frames
Codec ID : V_MPEG4/ISO/AVC
Duration : 1h 36mn
Bit rate mode : Variable
Bit rate : 17.5 Mbps
Maximum bit rate : 32.0 Mbps
Width : 1 920 pixels
Height : 1 080 pixels
Display aspect ratio : 16:9
Frame rate mode : Constant
Frame rate : 23.976 fps
Color space : YUV
Chroma subsampling : 4:2:0
Bit depth : 8 bits
Scan type : Progressive
Bits/(Pixel*Frame) : 0.352
Stream size : 11.8 GiB (71%)
Title : Army of Darkness (Director's Cut) @ AVC ~17991 kbps
Language : English
Default : Yes
Forced : No
Color primaries : BT.709
Transfer characteristics : BT.709
Matrix coefficients : BT.709
Audio #1
ID : 2
Format : AC-3
Format/Info : Audio Coding 3
Mode extension : CM (complete main)
Format settings, Endianness : Big
Codec ID : A_AC3
Duration : 1h 36mn
Bit rate mode : Constant
Bit rate : 448 Kbps
Channel(s) : 6 channels
Channel positions : Front: L C R, Side: L R, LFE
Sampling rate : 48.0 KHz
Bit depth : 16 bits
Compression mode : Lossy
Stream size : 309 MiB (2%)
Title : AC3, 6ch @ 448 kbps - DVO Пётр Гланц и Инна Королёва
Language : Russian
Default : Yes
Forced : No
Audio #2
ID : 3
Format : DTS
Format/Info : Digital Theater Systems
Mode : 16
Format settings, Endianness : Big
Codec ID : A_DTS
Duration : 1h 36mn
Bit rate mode : Constant
Bit rate : 1 510 Kbps
Channel(s) : 6 channels
Channel positions : Front: L C R, Side: L R, LFE
Sampling rate : 48.0 KHz
Bit depth : 24 bits
Compression mode : Lossy
Stream size : 1.02 GiB (6%)
Title : DTS 5.1 @ 1510 kbps - MVO Киномания
Language : Russian
Default : No
Forced : No
Audio #3
ID : 4
Format : DTS
Format/Info : Digital Theater Systems
Mode : 16
Format settings, Endianness : Big
Codec ID : A_DTS
Duration : 1h 36mn
Bit rate mode : Constant
Bit rate : 1 510 Kbps
Channel(s) : 6 channels
Channel positions : Front: L C R, Side: L R, LFE
Sampling rate : 48.0 KHz
Bit depth : 24 bits
Compression mode : Lossy
Stream size : 1.02 GiB (6%)
Title : DTS 5.1 @ 1510 kbps - AVO Михалёв
Language : Russian
Default : No
Forced : No
Audio #4
ID : 5
Format : DTS
Format/Info : Digital Theater Systems
Mode : 16
Format settings, Endianness : Big
Codec ID : A_DTS
Duration : 1h 36mn
Bit rate mode : Constant
Bit rate : 1 510 Kbps
Channel(s) : 6 channels
Channel positions : Front: L C R, Side: L R, LFE
Sampling rate : 48.0 KHz
Bit depth : 24 bits
Compression mode : Lossy
Stream size : 1.02 GiB (6%)
Title : DTS 5.1 @ 1510 kbps - AVO Визгунов
Language : Russian
Default : No
Forced : No
Audio #5
ID : 6
Format : DTS
Format/Info : Digital Theater Systems
Mode : 16
Format settings, Endianness : Big
Codec ID : A_DTS
Duration : 1h 36mn
Bit rate mode : Constant
Bit rate : 755 Kbps
Channel(s) : 6 channels
Channel positions : Front: L C R, Side: L R, LFE
Sampling rate : 48.0 KHz
Bit depth : 24 bits
Compression mode : Lossy
Stream size : 520 MiB (3%)
Title : DTS 5.1 @ 768 kbps - AVO Гранкин
Language : Russian
Default : No
Forced : No
Audio #6
ID : 7
Format : AC-3
Format/Info : Audio Coding 3
Mode extension : CM (complete main)
Format settings, Endianness : Big
Codec ID : A_AC3
Duration : 1h 36mn
Bit rate mode : Constant
Bit rate : 192 Kbps
Channel(s) : 2 channels
Channel positions : Front: L R
Sampling rate : 48.0 KHz
Bit depth : 16 bits
Compression mode : Lossy
Stream size : 132 MiB (1%)
Title : AC3, 2ch @ 192 kbps - AVO Готлиб
Language : Russian
Default : No
Forced : No
Audio #7
ID : 8
Format : AC-3
Format/Info : Audio Coding 3
Mode extension : CM (complete main)
Format settings, Endianness : Big
Codec ID : A_AC3
Duration : 1h 36mn
Bit rate mode : Constant
Bit rate : 448 Kbps
Channel(s) : 6 channels
Channel positions : Front: L C R, Side: L R, LFE
Sampling rate : 48.0 KHz
Bit depth : 16 bits
Compression mode : Lossy
Stream size : 309 MiB (2%)
Title : AC3, 6ch @ 448 kbps
Language : English
Default : No
Forced : No
Audio #8
ID : 9
Format : AC-3
Format/Info : Audio Coding 3
Mode extension : CM (complete main)
Format settings, Endianness : Big
Codec ID : A_AC3
Duration : 1h 36mn
Bit rate mode : Constant
Bit rate : 320 Kbps
Channel(s) : 2 channels
Channel positions : Front: L R
Sampling rate : 48.0 KHz
Bit depth : 16 bits
Compression mode : Lossy
Stream size : 221 MiB (1%)
Title : AC3, 2ch @ 320 kbps - Commentary
Language : English
Default : No
Forced : No
Text #1
ID : 10
Format : UTF-8
Codec ID : S_TEXT/UTF8
Codec ID/Info : UTF-8 Plain Text
Title : Reanimator1911
Language : Russian
Default : No
Forced : No
Text #2
ID : 11
Format : UTF-8
Codec ID : S_TEXT/UTF8
Codec ID/Info : UTF-8 Plain Text
Title : Киномания
Language : Russian
Default : No
Forced : No
Text #3
ID : 12
Format : UTF-8
Codec ID : S_TEXT/UTF8
Codec ID/Info : UTF-8 Plain Text
Language : English
Default : No
Forced : No
Menu
00:00:00.000 : en:Chapter 1
00:03:14.319 : en:Chapter 2
00:09:24.272 : en:Chapter 3
00:19:25.414 : en:Chapter 4
00:23:13.100 : en:Chapter 5
00:25:52.801 : en:Chapter 6
00:31:41.232 : en:Chapter 7
00:41:40.581 : en:Chapter 8
00:50:15.679 : en:Chapter 9
00:54:57.502 : en:Chapter 10
00:59:03.998 : en:Chapter 11
01:01:53.376 : en:Chapter 12
01:12:45.319 : en:Chapter 13
01:23:39.848 : en:Chapter 14
01:26:31.436 : en:Chapter 15
01:30:57.743 : en:Chapter 16
01:36:22.151 : en:Chapter 17


Показать сообщения:    

Текущее время: 12-Дек 06:40

Часовой пояс: UTC ± 0


Вы не можете начинать темы
Вы не можете отвечать на сообщения
Вы не можете редактировать свои сообщения
Вы не можете удалять свои сообщения
Вы не можете голосовать в опросах
Вы не можете прикреплять файлы к сообщениям
Вы не можете скачивать файлы

!ВНИМАНИЕ!
Сайт не предоставляет электронные версии произведений, а занимается лишь коллекционированием и каталогизацией ссылок, присылаемых и публикуемых на форуме нашими читателями. Если вы являетесь правообладателем какого-либо представленного материала и не желаете, чтобы ссылка на него находилась в нашем каталоге, свяжитесь с нами, и мы незамедлительно удалим ее. Файлы для обмена на трекере предоставлены пользователями сайта, и администрация не несет ответственности за их содержание. Просьба не заливать файлы, защищенные авторскими правами, а также файлы нелегального содержания!