Ивановский Торрент трекер
Яндекс.Погода
 

[Цитировать]
димитри37

Зловещие мертвецы: Черная книга / Evil Dead
Страна: США
Жанр: Ужасы
Год выпуска: 2013
Продолжительность: 01:24:39
Перевод: Профессиональный (дублированный)
Cубтитры: нет
Оригинальная аудиодорожка: английский
Режиссер: Федерико Альварес / Federico Alvarez
В ролях: Джейн Леви, Шайло Фернандес, Лу Тэйлор Пуччи, Джессика Лукас, Элизабет Блэкмор, Феникс Коннолли, Джим МакЛарти, Сиан Дэвис, Стефен Баттерворф, Карл Виллетц
Описание: Главный герой отвозит свою младшую сестру в лесной домик для того, чтобы помочь ей избавиться от наркотической зависимости. Оказавшись без «дури», девушка буквально сходит с ума, из-за чего становится невозможно определить, почему она ведет себя именно так: из-за ломки или же благодаря деятельности обитателей «Книги мертвых». Особенно после того, как один из ее приятелей прочел вслух отрывок из этой самой книги.
Сравнение с CAMRip

Качество видео: TeleSynch
Формат видео: AVI
Видео: 704x304 (2.32:1), 24 fps, XviD MPEG-4 ~1594 kbps avg, 0.31 bit/pixel
Аудио: 48 kHz, MPEG Layer 3, 2 ch, ~320.00 kbps avg Русский
Аудио 2: 44.100 kHz, MPEG Layer 3, 2 ch, ~128.00 kbps avg Английский

MediaInfo

Формат : AVI
Формат/Информация : Audio Video Interleave
Размер файла : 1,22 Гбайт
Продолжительность : 1 ч. 24 м.
Общий поток : 2057 Кбит/сек
Название фильма : Zloveshye.Mertvecy.2013.D.TS_uniongang.tv
Режиссёр : uniongang.tv
Жанр : Horror
Программа кодирования : VirtualDubMod 1.5.10.2 (build 2542/release)
Формат оригинала/Имя : Movie
Видео
Идентификатор : 0
Формат : MPEG-4 Visual
Профиль формата : Advanced Simple@L5
Параметр BVOP формата : 2
Параметр QPel формата : Нет
Параметр GMC формата : Без точки перехода
Параметр матрицы формата : Default (H.263)
Режим смешивания : Сжатый битовый поток
Идентификатор кодека : XVID
Идентификатор кодека/Подсказка : XviD
Продолжительность : 1 ч. 24 м.
Битрейт : 1517 Кбит/сек
Ширина : 704 пикселя
Высота : 304 пикселя
Соотношение сторон : 2,35:1
Частота кадров : 24,000 кадра/сек
Цветовое пространство : YUV
Субдискретизация насыщенности : 4:2:0
Битовая глубина : 8 бит
Тип развёртки : Прогрессивная
Метод сжатия : С потерями
Бит/(Пиксели*Кадры) : 0.295
Размер потока : 918 Мбайт (74%)
Библиотека кодирования : XviD 64
Аудио #1
Идентификатор : 1
Формат : MPEG Audio
Версия формата : Version 1
Профиль формата : Layer 3
Режим : Joint stereo
Идентификатор кодека : 55
Идентификатор кодека/Подсказка : MP3
Продолжительность : 1 ч. 24 м.
Вид битрейта : Постоянный
Битрейт : 320 Кбит/сек
Каналы : 2 канала
Частота : 48,0 КГц
Метод сжатия : С потерями
Размер потока : 194 Мбайт (16%)
Выравнивание : Соединение по промежуткам
Аудио #2
Идентификатор : 2
Формат : MPEG Audio
Версия формата : Version 1
Профиль формата : Layer 3
Режим : Joint stereo
Расширение режима : MS Stereo
Идентификатор кодека : 55
Идентификатор кодека/Подсказка : MP3
Продолжительность : 1 ч. 24 м.
Вид битрейта : Постоянный
Битрейт : 128 Кбит/сек
Каналы : 2 канала
Частота : 44,1 КГц
Метод сжатия : С потерями
Размер потока : 77,5 Мбайт (6%)
Выравнивание : Разделение по промежуткам
Библиотека кодирования : LAME3.98r
Настройки программы : -m j -V 4 -q 3 -lowpass 17 -b 128

Скриншот c названием фильма

Скриншоты

Показать сообщения:    

Текущее время: 21-Окт 05:29

Часовой пояс: UTC - 1


Вы не можете начинать темы
Вы не можете отвечать на сообщения
Вы не можете редактировать свои сообщения
Вы не можете удалять свои сообщения
Вы не можете голосовать в опросах
Вы не можете прикреплять файлы к сообщениям
Вы не можете скачивать файлы

!ВНИМАНИЕ!
Сайт не предоставляет электронные версии произведений, а занимается лишь коллекционированием и каталогизацией ссылок, присылаемых и публикуемых на форуме нашими читателями. Если вы являетесь правообладателем какого-либо представленного материала и не желаете, чтобы ссылка на него находилась в нашем каталоге, свяжитесь с нами, и мы незамедлительно удалим ее. Файлы для обмена на трекере предоставлены пользователями сайта, и администрация не несет ответственности за их содержание. Просьба не заливать файлы, защищенные авторскими правами, а также файлы нелегального содержания!