Ивановский Торрент трекер
Яндекс.Погода
Статистика раздачи
Размер:  5.99 GB   |    Зарегистрирован:  1 год 4 месяца   |    Скачан:  0 раз

Полного источника не было: Никогда

 
     
 
 
 

[Цитировать]
HUNTER

Зловещая луна / Bad Moon
Страна: США
Жанр: ужасы, фэнтези
Год выпуска: 1996
Продолжительность: 01:19:52
Перевод 1: Профессиональный (дублированный) | Варус Видео
Перевод 2: Профессиональный (двухголосый закадровый) | СТС
Перевод 3: Авторский (одноголосый закадровый) | Кузнецов
Cубтитры: English, English(SDH)
Оригинальная аудиодорожка: английский-Режиссер: Эрик Ред / Eric Red-В ролях: Мэриэл Хемингуэй, Майкл Паре, Мейсон Гэмбл, Кен Поуг, Хротгар Мэтьюз, Джоанна Лебовиц, Гэвин Бур, Джулия Монтгомери Браун, Примо-Описание: На северо-западе Канады, среди дремучих лесов, ночами, когда восходит зловеще - багровая луна, наступает ужас... Свирепое чудовище, полузверь - получеловек, выходит на охоту за своими жертвами. В тех же краях в живописном и уединенном месте проживают в своем семейном особняке Джанет, взрослая женщина, со своим десятилетним сыном Бреттом и овчаркой Тором. Однажды их навещает Тэд Харрисон, брат Джанет, по профессии фотокорреспондент-натуралист. До этого он долго отсутствовал, работая по контракту в Юго-Восточной Азии..-Релиз:
| Рип от SbR-Качество видео: BDRip | Sample
Формат видео: MKV
Видео: 1280x546at 23.976 fps, x264@L4.1, ~8994 kbps avg
Аудио 1: Russian: 48 kHz, AC3, 2/0 (L,R) ch, ~192 kbps avg | Варус Видео
Аудио 2: Russian: 48 kHz, AC3, 2/0 (L,R) ch, ~192 kbps avg | СТС
Аудио 3: Russian: 48 kHz, AC3, 3/2 (L,C,R,l,r) + LFE ch, ~640 kbps avg | Кузнецов
Аудио 4: English: 48 kHz, AC3, 3/2 (L,C,R,l,r) + LFE ch, ~640 kbps avg
Аудио 5: English: 48 kHzt, AAC 2.0, ~69 kbps avg |Commentary|
Цитата:
  • Сохранены оригинальные главы как на Blu-ray
  • Дорожка №3 была получена путем наложения чистого голоса на центральный канал оригинала

MediaInfo

Format                      : Matroska
Format version              : Version 4 / Version 2
File size                   : 5.99 GiB
Duration                    : 1h 19mn
Overall bit rate            : 10.7 Mbps
Encoded date                : UTC 2016-07-25 13:59:01
Writing application         : mkvmerge v8.3.0 ('Over the Horizon') 32bit
Writing library             : libebml v1.3.1 + libmatroska v1.4.2
Cover                       : Yes
Attachments                 : cover.jpg
Video
ID                          : 1
Format                      : AVC
Format/Info                 : Advanced Video Codec
Format profile              : High@L4.1
Format settings, CABAC      : Yes
Format settings, ReFrames   : 11 frames
Codec ID                    : V_MPEG4/ISO/AVC
Duration                    : 1h 19mn
Bit rate                    : 9 000 Kbps
Width                       : 1 280 pixels
Height                      : 546 pixels
Display aspect ratio        : 2.35:1
Frame rate mode             : Constant
Frame rate                  : 23.976 (23976/1000) fps
Color space                 : YUV
Chroma subsampling          : 4:2:0
Bit depth                   : 8 bits
Scan type                   : Progressive
Bits/(Pixel*Frame)          : 0.537
Stream size                 : 5.02 GiB (84%)
Writing library             : x264 core 148 r2705+54 9f484c1 t_mod_Custom [8-bit@all X86_64]
Encoding settings           : cabac=1 / ref=11 / deblock=1:-3:-3 / analyse=0x3:0x133 / me=umh / subme=10 / psy=1 / fade_compensate=0.00 / psy_rd=1.10:0.05 / mixed_ref=1 / me_range=32 / chroma_me=1 / trellis=2 / 8x8dct=1 / cqm=0 / deadzone=21,11 / fast_pskip=0 / chroma_qp_offset=-3 / threads=6 / lookahead_threads=1 / sliced_threads=0 / nr=0 / decimate=1 / interlaced=0 / bluray_compat=0 / constrained_intra=0 / fgo=0 / bframes=12 / b_pyramid=2 / b_adapt=2 / b_bias=0 / direct=3 / weightb=1 / open_gop=0 / weightp=2 / keyint=250 / keyint_min=23 / scenecut=40 / intra_refresh=0 / rc=2pass / mbtree=0 / bitrate=9000 / ratetol=1.0 / qcomp=0.60 / qpmin=0:0:0 / qpmax=69:69:69 / qpstep=4 / cplxblur=20.0 / qblur=0.5 / ip_ratio=1.30 / pb_ratio=1.20 / aq=3:0.65 / aq-sensitivity=10.00 / aq-factor=1.00:1.00:1.00 / aq2=1:0.60 / aq2-sensitivity=15.00 / aq2-factor=1.00:1.00:1.00 / aq3=1:[0.50:0.50]:[0.50:0.50]:[0.50:0.50]:[0.50:0.50] / aq3-sensitivity=10.00 / aq3-factor=[1.00:1.00]:[1.00:1.00]:[1.00:1.00] / aq3-boundary=192:64:24
Language                    : English
Default                     : Yes
Forced                      : No
Color range                 : Limited
Matrix coefficients         : BT.709
Audio #1
ID                          : 2
Format                      : AC-3
Format/Info                 : Audio Coding 3
Mode extension              : CM (complete main)
Format settings, Endianness : Big
Codec ID                    : A_AC3
Duration                    : 1h 19mn
Bit rate mode               : Constant
Bit rate                    : 192 Kbps
Channel(s)                  : 2 channels
Channel positions           : Front: L R
Sampling rate               : 48.0 KHz
Frame rate                  : 31.250 fps (1536 spf)
Compression mode            : Lossy
Stream size                 : 110 MiB (2%)
Title                       : Дубляж, Варус Видео
Language                    : Russian
Default                     : Yes
Forced                      : No
Audio #2
ID                          : 3
Format                      : AC-3
Format/Info                 : Audio Coding 3
Mode extension              : CM (complete main)
Format settings, Endianness : Big
Codec ID                    : A_AC3
Duration                    : 1h 19mn
Bit rate mode               : Constant
Bit rate                    : 192 Kbps
Channel(s)                  : 2 channels
Channel positions           : Front: L R
Sampling rate               : 48.0 KHz
Frame rate                  : 31.250 fps (1536 spf)
Compression mode            : Lossy
Stream size                 : 110 MiB (2%)
Title                       : Двухголосый закадровый, СТС
Language                    : Russian
Default                     : No
Forced                      : No
Audio #3
ID                          : 4
Format                      : AC-3
Format/Info                 : Audio Coding 3
Mode extension              : CM (complete main)
Format settings, Endianness : Big
Codec ID                    : A_AC3
Duration                    : 1h 19mn
Bit rate mode               : Constant
Bit rate                    : 640 Kbps
Channel(s)                  : 6 channels
Channel positions           : Front: L C R, Side: L R, LFE
Sampling rate               : 48.0 KHz
Frame rate                  : 31.250 fps (1536 spf)
Compression mode            : Lossy
Stream size                 : 366 MiB (6%)
Title                       : Одноголосый закадровый, Кузнецов
Language                    : Russian
Default                     : No
Forced                      : No
Audio #4
ID                          : 5
Format                      : AC-3
Format/Info                 : Audio Coding 3
Mode extension              : CM (complete main)
Format settings, Endianness : Big
Codec ID                    : A_AC3
Duration                    : 1h 19mn
Bit rate mode               : Constant
Bit rate                    : 640 Kbps
Channel(s)                  : 6 channels
Channel positions           : Front: L C R, Side: L R, LFE
Sampling rate               : 48.0 KHz
Frame rate                  : 31.250 fps (1536 spf)
Compression mode            : Lossy
Stream size                 : 366 MiB (6%)
Language                    : English
Default                     : No
Forced                      : No
Audio #5
ID                          : 6
Format                      : AAC
Format/Info                 : Advanced Audio Codec
Format profile              : LC
Codec ID                    : A_AAC
Duration                    : 1h 19mn
Bit rate                    : 67.7 Kbps
Channel(s)                  : 2 channels
Channel positions           : Front: L R
Sampling rate               : 48.0 KHz
Frame rate                  : 46.875 fps (1024 spf)
Compression mode            : Lossy
Delay relative to video     : 9ms
Stream size                 : 38.7 MiB (1%)
Title                       : Commentary
Language                    : English
Default                     : No
Forced                      : No
Text #1
ID                          : 7
Format                      : UTF-8
Codec ID                    : S_TEXT/UTF8
Codec ID/Info               : UTF-8 Plain Text
Duration                    : 1h 15mn
Bit rate                    : 34 bps
Count of elements           : 716
Stream size                 : 19.2 KiB (0%)
Language                    : English
Default                     : No
Forced                      : No
Text #2
ID                          : 8
Format                      : UTF-8
Codec ID                    : S_TEXT/UTF8
Codec ID/Info               : UTF-8 Plain Text
Duration                    : 1h 15mn
Bit rate                    : 31 bps
Count of elements           : 625
Stream size                 : 17.5 KiB (0%)
Title                       : SDH
Language                    : English
Default                     : No
Forced                      : No
Menu
00:00:00.000                : en:00:00:00.000
00:06:04.572                : en:00:06:04.572
00:12:19.196                : en:00:12:19.196
00:17:40.100                : en:00:17:40.100
00:23:52.180                : en:00:23:52.180
00:30:00.798                : en:00:30:00.798
00:37:20.863                : en:00:37:20.863
00:42:52.319                : en:00:42:52.319
00:48:51.261                : en:00:48:51.261
00:54:29.557                : en:00:54:29.557
01:02:23.448                : en:01:02:23.448
01:09:18.362                : en:01:09:18.362

Скриншоты

[iv-torrents.ru].t58467.torrent
Торрент: Зарегистрирован [ 2016-07-31 09:56 ] · 0D630B0C9501E07FE683DD49BEE344D6F1A4068C

Скачать .torrent

Скачать

30 KB

Статус: проверено
Скачан: 0 раз
Размер: 5.99 GB
terms.php


Показать сообщения:    

Текущее время: 11-Дек 07:53

Часовой пояс: UTC ± 0


Вы не можете начинать темы
Вы не можете отвечать на сообщения
Вы не можете редактировать свои сообщения
Вы не можете удалять свои сообщения
Вы не можете голосовать в опросах
Вы не можете прикреплять файлы к сообщениям
Вы можете скачивать файлы

!ВНИМАНИЕ!
Сайт не предоставляет электронные версии произведений, а занимается лишь коллекционированием и каталогизацией ссылок, присылаемых и публикуемых на форуме нашими читателями. Если вы являетесь правообладателем какого-либо представленного материала и не желаете, чтобы ссылка на него находилась в нашем каталоге, свяжитесь с нами, и мы незамедлительно удалим ее. Файлы для обмена на трекере предоставлены пользователями сайта, и администрация не несет ответственности за их содержание. Просьба не заливать файлы, защищенные авторскими правами, а также файлы нелегального содержания!