Земля против летающих тарелок / Earth vs. the flying saucers (Фред Сирс / Fred F. Sears) [1956, США, фантастика, BDRemux 1080p] [ Color ] VO + Sub Eng + Original Eng :: Ивановский Торрент трекер
Важное объявление!
У Нас Все раздачи мультитрекерные, при нуле пиров в релизах, можете смело вставать на закачку!
Статистика раздачи
Размер:     |    Зарегистрирован:     |    Скачан:     |   
Нет
 
     
 
 
Автор Сообщение

HUNTER

Стаж:
4 года 11 месяцев
Сообщений:
66052

Репутация: 101

[+] [-]
Вне форума [Профиль] [ЛС]

Земля против летающих тарелок / Earth vs. the flying saucers
-Страна: США
Жанр: фантастика
Год выпуска: 1956
Продолжительность: 01:23:35-Перевод: Одноголосый закадровый - "Трамвай-фильм"-Cубтитры: английские
Оригинальная аудиодорожка: английский-Режиссер: Феликс Э. Файст / Felix E. Feist-В ролях: Хью Мэрлоу, Джоан Тэйлор, Дональд Кертис, Лэрри Блэйк, Моррис Анкрум, Джон Заремба, Томас Браун Генри Henry, Грэндон Родс, Фред Олдрич, Холли Бэйн-Описание:
Земля подвергается нашествию инопланетян, последних представителей погибшей расы. Они прилетели на тарелках, уничтожили своими лучами большую часть американских вооруженных сил, но один очень умный ученый быстро сообразил, что пришельцы имеют малое сопротивление звуковым колебаниям и вот с помощью придуманного им прибора последняя тарелка сбита над Капитолием.-Доп. информация: за блюрик спасибо igor nisan, Цветная версия!-Сэмпл: Скачать-Тип релиза: BDRemux 1080p
Контейнер: MKV
Видео: MPEG-4 AVC Video; 23461 kbps; 1080p; 23.976 fps; 16:9; High Profile 4.1
Аудио 1: Russian; AC3; 48.0 KHz; 2ch; 192 Kbps
Аудио 2: English; DTS; 48.0 KHz; 6ch; 1 716 Kbps (DTS Core: 5.1 / 48 kHz / 768 kbps / 16-bit)
Аудио 3: English; AC3; 48.0 KHz; 2ch; 192 Kbps Commentary

MediaInfo

Format : Matroska
Format version : Version 4 / Version 2
File size : 15.0 GiB
Duration : 1h 23mn
Overall bit rate mode : Variable
Overall bit rate : 25.6 Mbps
Encoded date : UTC 2016-09-16 16:47:08
Writing application : mkvmerge v8.3.0 ('Over the Horizon') 64bit
Writing library : libebml v1.3.1 + libmatroska v1.4.2
Attachments : poster.jpg
Video
ID : 1
Format : AVC
Format/Info : Advanced Video Codec
Format profile : High@L4.1
Format settings, CABAC : Yes
Format settings, ReFrames : 2 frames
Codec ID : V_MPEG4/ISO/AVC
Duration : 1h 23mn
Bit rate mode : Variable
Bit rate : 23.5 Mbps
Width : 1 920 pixels
Height : 1 080 pixels
Display aspect ratio : 16:9
Frame rate mode : Constant
Frame rate : 23.976 (24000/1001) fps
Color space : YUV
Chroma subsampling : 4:2:0
Bit depth : 8 bits
Scan type : Progressive
Bits/(Pixel*Frame) : 0.472
Stream size : 13.7 GiB (92%)
Default : Yes
Forced : No
Audio #1
ID : 2
Format : AC-3
Format/Info : Audio Coding 3
Mode extension : CM (complete main)
Format settings, Endianness : Big
Codec ID : A_AC3
Duration : 1h 23mn
Bit rate mode : Constant
Bit rate : 192 Kbps
Channel(s) : 2 channels
Channel positions : Front: L R
Sampling rate : 48.0 KHz
Frame rate : 31.250 fps (1536 spf)
Compression mode : Lossy
Stream size : 115 MiB (1%)
Title : VO Eraserhead
Language : Russian
Default : Yes
Forced : No
Audio #2
ID : 3
Format : DTS
Format/Info : Digital Theater Systems
Format profile : MA / Core
Mode : 16
Format settings, Endianness : Big
Codec ID : A_DTS
Duration : 1h 23mn
Bit rate mode : Variable / Constant
Bit rate : 1 716 Kbps / 768 Kbps
Channel(s) : 6 channels
Channel positions : Front: L C R, Side: L R, LFE
Sampling rate : 48.0 KHz
Frame rate : 93.750 fps (512 spf)
Bit depth : 16 bits
Compression mode : Lossless / Lossy
Stream size : 1.00 GiB (7%)
Language : English
Default : No
Forced : No
Audio #3
ID : 4
Format : AC-3
Format/Info : Audio Coding 3
Mode extension : CM (complete main)
Format settings, Endianness : Big
Codec ID : A_AC3
Duration : 1h 23mn
Bit rate mode : Constant
Bit rate : 192 Kbps
Channel(s) : 2 channels
Channel positions : Front: L R
Sampling rate : 48.0 KHz
Frame rate : 31.250 fps (1536 spf)
Compression mode : Lossy
Stream size : 115 MiB (1%)
Title : Commentary
Language : English
Default : No
Forced : No
Text
ID : 5
Format : UTF-8
Codec ID : S_TEXT/UTF8
Codec ID/Info : UTF-8 Plain Text
Duration : 1h 23mn
Bit rate : 58 bps
Count of elements : 779
Stream size : 35.6 KiB (0%)
Language : English
Default : No
Forced : No

Скриншоты


_________________
Показать сообщения:    

Текущее время: Сегодня 19:16

Часовой пояс: GMT



Вы не можете начинать темы
Вы не можете отвечать на сообщения
Вы не можете редактировать свои сообщения
Вы не можете удалять свои сообщения
Вы не можете голосовать в опросах
Вы не можете прикреплять файлы к сообщениям
Вы не можете скачивать файлы