Важное объявление!
У Нас Все раздачи мультитрекерные, при нуле пиров в релизах, можете смело вставать на закачку!
 
Автор Сообщение

HUNTER

Стаж:
4 года 8 месяцев
Сообщений:
62016

Репутация: 101

[+] [-]
Вне форума [Профиль] [ЛС]

Земля до начала времен 5: Таинственный остров / The Land Before Time V: The Mysterious Island
Страна: США
Жанр: Анимация
Продолжительность: 01:13:26
Год выпуска: 1997
Перевод: Авторский (одноголосый закадровый) Юрий Живов
Перевод 2: Авторский (одноголосый закадровый) Александр Кашкин (Первомайский)
Русские субтитры: нет
Режиссёр: Чарльз Гросвенор / Charles Grosvenor
Роли озвучивали: Джон Ингл, Брэндон Лакруа, Ария Ноэль Курзон, Роб Полсен, Энди МакЭфи, Джефф Беннетт, Кеннет Марс, Мириам Флинн, Тресс МакНилл, Кэннон Янг
Описание: Великая Долина всегда была тем единственным местом, где динозавры всех мастей жили в мире и взаимном согласии. Еды повсюду было предостаточно, и по сему обитатели Великой Долины прибывали в сытости, спокойствии и миролюбии.
Но, к несчастью, этой идиллии не суждено было длиться вечно: Великая Долина подверглась нашествию прожорливой саранчи, которая обглодала в округе все листья. Флегматичные травоядные ящеры в одночасье лишились всех запасов пропитания; теперь придется ждать до тех пор, пока в Великой Долине снова вырастут листья!
Пока взрослые динозавры препирались, как им быть дальше и где искать еду, Крошки-Ножки и его веселая компания отправились в путешествие. Путь маленьких героев лежал через Большую Воду к берегам Таинственного Острова!
Доп. информация: Обе дорожки синхронизированы и наложены ale_x2008 при помощи Sony Vegas и VirtualDubMod.
Дорожка с Ю. Живовым из архивов VHS. За оцифрованную с VHS дорожку благодарю - cinemasonar.
За оцифрованную с VHS дорожку А. Кашкина благодарим - d_rocker

Релиз
Семпл: https://yadi.sk/i/3cyossxuqUE6o
Качество: DVDRip
Формат: AVI
Видео: XviD build 73, 640x480 (1.33:1), 23.976 fps, 2256 Kbps, 0.31 bit/pixel
Аудио: AC3 Dolby Digital, 48000Hz, 2/0 (L,R) ch (mono), 192.00 kbps avg [Живов]
Аудио 2: AC3 Dolby Digital, 48000Hz, 2/0 (L,R) ch (mono), 192.00 kbps avg [Кашкин]
Аудио 3: AC3 Dolby Digital, 48000Hz, 2/0 (L,R) ch (stereo), 192.00 kbps avg [Eng]
Субтитры: отсутствуют

Подробные технические данные

Земля до начала времен 5 - Таинственный остров - The Land Before Time V - The Mysterious Island (by ale_x2008).aviFormat : AVIFormat/Info : Audio Video InterleaveFile size : 1.44 GiBDuration : 1h 13mnOverall bit rate : 2 798 KbpsMovie name : Земля до начала времен 5 - Таинственный остров - The Land Before Time V - The Mysterious Island (by ale_x2008)Director : by ale_x2008Writing application : VirtualDubMod 1.5.10.3 (build 2550/release)Copyright : Edich2Comment : RuTracker.org
VideoID : 0Format : MPEG-4 VisualFormat profile : Advanced Simple@L5Format settings, BVOP : 2Format settings, QPel : NoFormat settings, GMC : No warppointsFormat settings, Matrix : CustomCodec ID : XVIDCodec ID/Hint : XviDDuration : 1h 13mnBit rate : 2 203 KbpsWidth : 640 pixelsHeight : 480 pixelsDisplay aspect ratio : 4:3Frame rate : 23.976 (24000/1001) fpsColor space : YUVChroma subsampling : 4:2:0Bit depth : 8 bitsScan type : ProgressiveCompression mode : LossyBits/(Pixel*Frame) : 0.299Stream size : 1.13 GiB (79%)Writing library : XviD 73
Audio #1ID : 1Format : AC-3Format/Info : Audio Coding 3Mode extension : CM (complete main)Format settings, Endianness : BigCodec ID : 2000Duration : 1h 13mnBit rate mode : ConstantBit rate : 192 KbpsChannel(s) : 2 channelsChannel positions : Front: L RSampling rate : 48.0 KHzFrame rate : 31.250 fps (1536 spf)Compression mode : LossyStream size : 101 MiB (7%)Alignment : Split accross interleavesInterleave, duration : 42 ms (1.00 video frame)Interleave, preload duratio : 500 ms
Audio #2ID : 2Format : AC-3Format/Info : Audio Coding 3Mode extension : CM (complete main)Format settings, Endianness : BigCodec ID : 2000Duration : 1h 13mnBit rate mode : ConstantBit rate : 192 KbpsChannel(s) : 2 channelsChannel positions : Front: L RSampling rate : 48.0 KHzFrame rate : 31.250 fps (1536 spf)Compression mode : LossyStream size : 101 MiB (7%)Alignment : Split accross interleavesInterleave, duration : 42 ms (1.00 video frame)Interleave, preload duratio : 500 ms
Audio #3ID : 3Format : AC-3Format/Info : Audio Coding 3Mode extension : CM (complete main)Format settings, Endianness : BigCodec ID : 2000Duration : 1h 13mnBit rate mode : ConstantBit rate : 192 KbpsChannel(s) : 2 channelsChannel positions : Front: L RSampling rate : 48.0 KHzFrame rate : 31.250 fps (1536 spf)Compression mode : LossyStream size : 101 MiB (7%)Alignment : Split accross interleavesInterleave, duration : 42 ms (1.00 video frame)Interleave, preload duratio : 500 ms

Скриншоты



_________________
Показать сообщения:    

Текущее время: Сегодня 00:42

Часовой пояс: GMT



Вы не можете начинать темы
Вы не можете отвечать на сообщения
Вы не можете редактировать свои сообщения
Вы не можете удалять свои сообщения
Вы не можете голосовать в опросах
Вы не можете прикреплять файлы к сообщениям
Вы не можете скачивать файлы
Наши партнеры: интернет магазин Ивановского трикотажа textilla.ru