Важное объявление!
У Нас Все раздачи мультитрекерные, при нуле пиров в релизах, можете смело вставать на закачку!
Статистика раздачи
Размер:     |    Зарегистрирован:     |    Скачан:     |   
Нет
 
     
 
 
Автор Сообщение

HUNTER

Стаж:
5 лет
Сообщений:
68042

Репутация: 101

[+] [-]
Вне форума [Профиль] [ЛС]

Земля до начала времен 12: Великий День птиц
The Land Before Time XII: The Great Day of The Flyers
Страна: США
Жанр: мультфильм, мюзикл, приключения, семейный
Продолжительность: 01:20:22
Год выпуска: 2006-Перевод: Профессиональный (Дублированный)
Перевод: Авторский (Одноголосый закадровый) - А. Дольский
Русские субтитры: нет
Режиссёр: Чарльз Гросвенор / Charles Grosvenor-Роли озвучивали: Джон Ингл, Ник Прайс, Ария Ноэль Курзон, Роб Полсен, Камрин Менхейм, Энди МакЭфи, Джефф Беннетт, Ника Футтерман, Сьюзэн Блу, Тресс МакНилл-Описание: Веселье начинает свой полет в компании наших доисторических друзей Литлфута, Сэры, Питри, Спайка и Даки в новом парящем приключении! «Великий День Птиц» — важное событие в жизни всех летающих Великой Долины — совсем скоро наступит, но независимый свободный стиль Питри не позволяет герою вписаться в стаю своих близких. Друзья стараются помочь ему, но новичок по имени Гвидо дает самый полезный совет — иногда лучше оставаться «самим собой». Никто никогда не видел такого как Гвидо, и когда команда пытается выяснить, к какому виду динозавров он принадлежит, они неожиданно оказываются вовлечены в волнующее таинственное путешествие.-Релиз: | | -• Большое спасибо Sunny (HDClub) за исходный WEB-DL;
• Работа с WEB-DL и звуком -Azureus--Качество: WEB-DLRip
Формат: AVI
Видео: 688x384 (1.79:1), 23,976 fps, XviD 65 ~1 162 kbps avg, 0.18 bit/pixel
Аудио: 48.0 kHz, MPEG Layer 3, 2/0 (L,R) ch, ~128 kbps |DUB|
Аудио: 48.0 kHz, MPEG Layer 3, 2/0 (L,R) ch, ~128 kbps |AVO| отдельно
Субтитры: отсутствуют

MI


Общее
Полное имя : E:\incarcare\rip gata\The Land Before Time XII The Great Day of the Flyers.2006.WEB-DLRip\The Land Before Time XII The Great Day of the Flyers.2006.WEB-DLRip.avi
Формат : AVI
Формат/Информация : Audio Video Interleave
Размер файла : 747 Мбайт
Продолжительность : 1 ч. 20 м.
Общий поток : 1300 Кбит/сек
Программа кодирования : VirtualDubMod 1.5.10.2 (build 2540/release)
Библиотека кодирования : VirtualDubMod build 2540/release
Видео
Идентификатор : 0
Формат : MPEG-4 Visual
Профиль формата : Advanced Simple@L5
Параметр BVOP формата : 1
Параметр QPel формата : Нет
Параметр GMC формата : Без точки перехода
Параметр матрицы формата : Выборочная
Идентификатор кодека : XVID
Идентификатор кодека/Подсказка : XviD
Продолжительность : 1 ч. 20 м.
Битрейт : 1162 Кбит/сек
Ширина : 688 пикселей
Высота : 384 пикселя
Соотношение сторон : 16:9
Частота кадров : 23,976 кадра/сек
Цветовое пространство : YUV
Субдискретизация насыщенности : 4:2:0
Битовая глубина : 8 бит
Тип развёртки : Прогрессивная
Метод сжатия : С потерями
Бит/(Пиксели*Кадры) : 0.184
Размер потока : 668 Мбайт (89%)
Библиотека кодирования : XviD 65
Аудио
Идентификатор : 1
Формат : MPEG Audio
Версия формата : Version 1
Профиль формата : Layer 3
Идентификатор кодека : 55
Идентификатор кодека/Подсказка : MP3
Продолжительность : 1 ч. 20 м.
Вид битрейта : Постоянный
Битрейт : 128 Кбит/сек
Каналы : 2 канала
Частота : 48,0 КГц
Метод сжатия : С потерями
Размер потока : 73,6 Мбайт (10%)
Выравнивание : Соединение по промежуткам
Продолжительность промежутка : 42 мс. (1,00 видеокадр)
Время предзагрузки промежутка : 504 мс.

Скриншоты


_________________
Показать сообщения:    

Текущее время: Сегодня 14:50

Часовой пояс: GMT



Вы не можете начинать темы
Вы не можете отвечать на сообщения
Вы не можете редактировать свои сообщения
Вы не можете удалять свои сообщения
Вы не можете голосовать в опросах
Вы не можете прикреплять файлы к сообщениям
Вы не можете скачивать файлы