Важное объявление!
У Нас Все раздачи мультитрекерные, при нуле пиров в релизах, можете смело вставать на закачку!
 
Автор Сообщение

димитри37

Стаж:
4 года
Сообщений:
1236

Репутация: 127

[+] [-]
Вне форума [Профиль] [ЛС]

Здравствуйте, я ваша тетя! (2 серии)
Жанр: комедия
Год выпуска: 1975
Продолжительность: 00:49:25 + 00:48:04
Режиссёр: Виктор Титов
В ролях:
Александр Калягин - Бабс Баберлей
Валентин Гафт - Брассет
Армен Джигарханян - судья Кригс
Михаил Любезнов - Чарли Уэйкем
Олег Шкловский - Джеки Чесней
Михаил Козаков - полковник Френсис Чесней
Тамара Носова - донна Роза д’Альвадорес
Татьяна Веденеева - Элла Делей
Татьяна Васильева - Энни
Галина Орлова - Бетти
Описание: По мотивам пьесы Б. Томаса «Тетка Чарлея». Действие фильма происходит в начале ХХ века. Безработный Бабс попадает в богатый дом, где вынужден, переодевшись в женскую одежду, сыграть роль тетушки-миллионерши, чтобы помочь двум молодым джентльменам жениться на их возлюбленных…

Качество видео: DVDRip-AVC
Формат видео: MKV
Видео: x264 (High@L4.1); 696x520, Display aspect ratio 4:3, 25.000 fps, 1776 Kbps
Аудио: Оригинал AC-3; 16 bit 48 Khz; 6ch 384 Kbps; CBR

Скриншоты

Исходник

MediaInfo

1 серия

General
Unique ID : 192680103447808240918973933469801633408 (0x90F4D68D2EC2C2A8A389BD3C9CFBD680)
Complete name : Здравствуйте, я ваша тётя.1975.1 серия.mkv
Format : Matroska
Format version : Version 2
File size : 764 MiB
Duration : 49mn 25s
Overall bit rate : 2 162 Kbps
Movie name : Здравствуйте, я ваша тетя
Encoded date : UTC 2012-08-05 14:27:05
Writing application : mkvmerge v5.6.0 ('Kenya Kane') built on Jun 29 2012 15:01:44
Writing library : libebml v1.2.3 + libmatroska v1.3.0
Video
ID : 1
Format : AVC
Format/Info : Advanced Video Codec
Format profile : High@L4.1
Format settings, CABAC : Yes
Format settings, ReFrames : 16 frames
Codec ID : V_MPEG4/ISO/AVC
Duration : 49mn 25s
Bit rate : 1 776 Kbps
Width : 696 pixels
Height : 520 pixels
Display aspect ratio : 4:3
Frame rate : 25.000 fps
Color space : YUV
Chroma subsampling : 4:2:0
Bit depth : 8 bits
Scan type : Progressive
Bits/(Pixel*Frame) : 0.196
Stream size : 613 MiB (80%)
Title : Здравствуйте, я ваша тетя.1975.1 серия
Writing library : x264 core 125 r2200 999b753
Encoding settings : cabac=1 / ref=16 / deblock=1:-1:-1 / analyse=0x3:0x133 / me=umh / subme=11 / psy=1 / psy_rd=1.00:0.20 / mixed_ref=1 / me_range=48 / chroma_me=1 / trellis=2 / 8x8dct=1 / cqm=0 / deadzone=21,11 / fast_pskip=0 / chroma_qp_offset=-3 / threads=12 / lookahead_threads=2 / sliced_threads=0 / nr=0 / decimate=0 / interlaced=0 / bluray_compat=0 / constrained_intra=0 / bframes=9 / b_pyramid=2 / b_adapt=2 / b_bias=0 / direct=3 / weightb=1 / open_gop=0 / weightp=2 / keyint=250 / keyint_min=25 / scenecut=40 / intra_refresh=0 / rc_lookahead=40 / rc=2pass / mbtree=0 / bitrate=1776 / ratetol=1.0 / qcomp=0.70 / qpmin=0 / qpmax=69 / qpstep=4 / cplxblur=20.0 / qblur=0.5 / vbv_maxrate=50000 / vbv_bufsize=62500 / nal_hrd=none / ip_ratio=1.40 / pb_ratio=1.30 / aq=1:1.10
Language : Russian
Default : Yes
Forced : No
Color primaries : BT.470-6 System B, BT.470-6 System G, BT.601-6 625, BT.1358 625, BT.1700 625 PAL, BT.1700 625 SECAM
Transfer characteristics : BT.470-6 System B, BT.470-6 System G
Matrix coefficients : BT.470-6 System B, BT.470-6 System G, BT.601-6 625, BT.1358 625, BT.1700 625 PAL, BT.1700 625 SECAM, IEC 61966-2-4 601
Audio
ID : 2
Format : AC-3
Format/Info : Audio Coding 3
Mode extension : CM (complete main)
Codec ID : A_AC3
Duration : 49mn 25s
Bit rate mode : Constant
Bit rate : 384 Kbps
Channel(s) : 6 channels
Channel positions : Front: L C R, Side: L R, LFE
Sampling rate : 48.0 KHz
Bit depth : 16 bits
Compression mode : Lossy
Stream size : 136 MiB (18%)
Title : Оригинал AC-3; 16 bit 48 Khz; 6ch 384 Kbps; CBR
Language : Russian
Default : Yes
Forced : No

2 серия

General
Unique ID : 239462470267705404946142255366363952852 (0xB426CB50FD4DBBDD9AD376A0408C36D4)
Complete name : Здравствуйте, я ваша тётя.1975.2 серия.mkv
Format : Matroska
Format version : Version 2
File size : 743 MiB
Duration : 48mn 4s
Overall bit rate : 2 161 Kbps
Movie name : Здравствуйте, я ваша тетя
Encoded date : UTC 2012-08-05 16:30:26
Writing application : mkvmerge v5.6.0 ('Kenya Kane') built on Jun 29 2012 15:01:44
Writing library : libebml v1.2.3 + libmatroska v1.3.0
Video
ID : 1
Format : AVC
Format/Info : Advanced Video Codec
Format profile : High@L4.1
Format settings, CABAC : Yes
Format settings, ReFrames : 16 frames
Codec ID : V_MPEG4/ISO/AVC
Duration : 48mn 4s
Bit rate : 1 776 Kbps
Width : 696 pixels
Height : 520 pixels
Display aspect ratio : 4:3
Frame rate : 25.000 fps
Color space : YUV
Chroma subsampling : 4:2:0
Bit depth : 8 bits
Scan type : Progressive
Bits/(Pixel*Frame) : 0.196
Stream size : 596 MiB (80%)
Title : Здравствуйте, я ваша тетя.1975.1 серия
Writing library : x264 core 125 r2200 999b753
Encoding settings : cabac=1 / ref=16 / deblock=1:-1:-1 / analyse=0x3:0x133 / me=umh / subme=11 / psy=1 / psy_rd=1.00:0.20 / mixed_ref=1 / me_range=48 / chroma_me=1 / trellis=2 / 8x8dct=1 / cqm=0 / deadzone=21,11 / fast_pskip=0 / chroma_qp_offset=-3 / threads=12 / lookahead_threads=2 / sliced_threads=0 / nr=0 / decimate=0 / interlaced=0 / bluray_compat=0 / constrained_intra=0 / bframes=9 / b_pyramid=2 / b_adapt=2 / b_bias=0 / direct=3 / weightb=1 / open_gop=0 / weightp=2 / keyint=250 / keyint_min=25 / scenecut=40 / intra_refresh=0 / rc_lookahead=40 / rc=2pass / mbtree=0 / bitrate=1776 / ratetol=1.0 / qcomp=0.70 / qpmin=0 / qpmax=69 / qpstep=4 / cplxblur=20.0 / qblur=0.5 / vbv_maxrate=50000 / vbv_bufsize=62500 / nal_hrd=none / ip_ratio=1.40 / pb_ratio=1.30 / aq=1:1.10
Language : Russian
Default : Yes
Forced : No
Color primaries : BT.470-6 System B, BT.470-6 System G, BT.601-6 625, BT.1358 625, BT.1700 625 PAL, BT.1700 625 SECAM
Transfer characteristics : BT.470-6 System B, BT.470-6 System G
Matrix coefficients : BT.470-6 System B, BT.470-6 System G, BT.601-6 625, BT.1358 625, BT.1700 625 PAL, BT.1700 625 SECAM, IEC 61966-2-4 601
Audio
ID : 2
Format : AC-3
Format/Info : Audio Coding 3
Mode extension : CM (complete main)
Codec ID : A_AC3
Duration : 48mn 4s
Bit rate mode : Constant
Bit rate : 384 Kbps
Channel(s) : 6 channels
Channel positions : Front: L C R, Side: L R, LFE
Sampling rate : 48.0 KHz
Bit depth : 16 bits
Compression mode : Lossy
Stream size : 132 MiB (18%)
Title : Оригинал AC-3; 16 bit 48 Khz; 6ch 384 Kbps; CBR
Language : Russian
Default : Yes
Forced : No

x264 log

1 серия

...last pass...
x264.exe: --pass 2 --bitrate 1776 --preset medium --ref 16 --aq-strength 1.1 --deblock -1:-1 --merange 48 --bframes 9 --direct auto --b-adapt 2 --trellis 2 --no-fast-pskip --no-dct-decimate --psy-rd 1.00:0.20 --qcomp 0.70 --vbv-maxrate 50000 --vbv-bufsize 62500 --partitions all --subme 11 --me umh --no-mbtree --colorprim bt470bg --transfer bt470bg --colormatrix bt470bg --sar 1:1 --stats "L:\Temp\0489.log" --output "L:\Temp\0489.264" "L:\Temp\0489.avs"
avs [info]: 696x520p 1:1 @ 25/1 fps (cfr)
x264 [info]: using SAR=1/1
x264 [info]: using cpu capabilities: MMX2 SSE2Fast SSSE3 FastShuffle SSE4.2
x264 [info]: profile High, level 4.1
x264 [info]: frame I:454 Avg QP:21.40 size: 40148
x264 [info]: frame P:15590 Avg QP:23.73 size: 15863
x264 [info]: frame B:58083 Avg QP:24.27 size: 6763
x264 [info]: consecutive B-frames: 1.1% 1.7% 6.6% 24.4% 16.4% 43.1% 4.4% 1.3% 0.5% 0.3%
x264 [info]: mb I I16..4: 2.4% 80.5% 17.0%
x264 [info]: mb P I16..4: 0.4% 13.9% 1.3% P16..4: 37.8% 35.8% 7.8% 1.8% 0.1% skip: 1.1%
x264 [info]: mb B I16..4: 0.1% 2.2% 0.2% B16..8: 35.1% 20.6% 3.0% direct: 8.9% skip:29.9% L0:36.9% L1:44.0% BI:19.1%
x264 [info]: 8x8 transform intra:88.9% inter:62.5%
x264 [info]: direct mvs spatial:98.9% temporal:1.1%
x264 [info]: coded y,uvDC,uvAC intra: 94.7% 46.3% 17.9% inter: 34.6% 14.7% 1.3%
x264 [info]: i16 v,h,dc,p: 38% 15% 5% 42%
x264 [info]: i8 v,h,dc,ddl,ddr,vr,hd,vl,hu: 14% 9% 5% 9% 13% 13% 13% 12% 14%
x264 [info]: i4 v,h,dc,ddl,ddr,vr,hd,vl,hu: 15% 11% 2% 7% 14% 14% 14% 10% 13%
x264 [info]: i8c dc,h,v,p: 53% 17% 16% 15%
x264 [info]: Weighted P-Frames: Y:28.5% UV:4.4%
x264 [info]: ref P L0: 41.5% 14.8% 16.8% 6.2% 4.5% 3.3% 2.9% 1.6% 1.5% 1.2% 1.2% 1.0% 1.0% 0.9% 0.9% 0.7%
x264 [info]: ref B L0: 80.1% 9.6% 3.0% 1.7% 1.1% 1.0% 0.8% 0.5% 0.4% 0.4% 0.3% 0.3% 0.3% 0.2% 0.1%
x264 [info]: ref B L1: 95.8% 4.2%
x264 [info]: kb/s:1776.23
x264 [total]: encoded 74127 frames, 11.61 fps, 1776.23 kb/s

2 серия

...last pass...
x264.exe: --pass 2 --bitrate 1776 --preset medium --ref 16 --aq-strength 1.1 --deblock -1:-1 --merange 48 --bframes 9 --direct auto --b-adapt 2 --trellis 2 --no-fast-pskip --no-dct-decimate --psy-rd 1.00:0.20 --qcomp 0.70 --vbv-maxrate 50000 --vbv-bufsize 62500 --partitions all --subme 11 --me umh --no-mbtree --colorprim bt470bg --transfer bt470bg --colormatrix bt470bg --sar 1:1 --stats "L:\Temp\0490.log" --output "L:\Temp\0490.264" "L:\Temp\0490.avs"
avs [info]: 696x520p 1:1 @ 25/1 fps (cfr)
x264 [info]: using SAR=1/1
x264 [info]: using cpu capabilities: MMX2 SSE2Fast SSSE3 FastShuffle SSE4.2
x264 [info]: profile High, level 4.1
x264 [info]: frame I:393 Avg QP:21.21 size: 43296
x264 [info]: frame P:15114 Avg QP:23.76 size: 16298
x264 [info]: frame B:56596 Avg QP:24.21 size: 6657
x264 [info]: consecutive B-frames: 1.0% 1.5% 6.3% 25.1% 16.9% 43.5% 4.0% 1.1% 0.5% 0.3%
x264 [info]: mb I I16..4: 2.7% 80.4% 16.9%
x264 [info]: mb P I16..4: 0.4% 13.9% 1.2% P16..4: 37.9% 35.6% 7.8% 1.8% 0.1% skip: 1.4%
x264 [info]: mb B I16..4: 0.1% 1.9% 0.2% B16..8: 34.9% 19.8% 2.9% direct: 8.5% skip:31.7% L0:35.8% L1:44.5% BI:19.7%
x264 [info]: 8x8 transform intra:88.9% inter:62.2%
x264 [info]: direct mvs spatial:98.7% temporal:1.3%
x264 [info]: coded y,uvDC,uvAC intra: 94.6% 70.8% 26.6% inter: 33.8% 19.1% 1.6%
x264 [info]: i16 v,h,dc,p: 38% 12% 6% 44%
x264 [info]: i8 v,h,dc,ddl,ddr,vr,hd,vl,hu: 13% 8% 5% 9% 13% 13% 13% 12% 13%
x264 [info]: i4 v,h,dc,ddl,ddr,vr,hd,vl,hu: 15% 10% 4% 7% 14% 14% 14% 10% 12%
x264 [info]: i8c dc,h,v,p: 30% 24% 23% 23%
x264 [info]: Weighted P-Frames: Y:22.8% UV:5.3%
x264 [info]: ref P L0: 41.9% 14.9% 16.8% 5.9% 4.4% 3.1% 2.9% 1.5% 1.5% 1.2% 1.2% 1.0% 1.0% 0.9% 0.9% 0.7%
x264 [info]: ref B L0: 83.5% 8.8% 2.2% 1.3% 0.8% 0.8% 0.5% 0.4% 0.3% 0.3% 0.3% 0.3% 0.2% 0.2% 0.1%
x264 [info]: ref B L1: 96.6% 3.4%
x264 [info]: kb/s:1775.50
x264 [total]: encoded 72103 frames, 11.66 fps, 1775.50 kb/s

FAQ по просмотру MKV/h.264/AAC

Показать сообщения:    

Текущее время: Сегодня 16:10

Часовой пояс: GMT



Вы не можете начинать темы
Вы не можете отвечать на сообщения
Вы не можете редактировать свои сообщения
Вы не можете удалять свои сообщения
Вы не можете голосовать в опросах
Вы не можете прикреплять файлы к сообщениям
Вы не можете скачивать файлы
Наши партнеры: интернет магазин Ивановского трикотажа textilla.ru