Ивановский Торрент трекер
Яндекс.Погода
 

[Цитировать]
HUNTER

Звёздный истребитель: Легенда об Орине / Starchaser: The legend of Orin
Страна: США
Жанр: Фантастический боевик
Продолжительность: 01:40:05
Год выпуска: 1985
Перевод: Профессиональный (многоголосый закадровый)
Русские субтитры: есть
Режиссёр: Стивен Хан / Steven Hahn
Описание: Вот уже несколько веков в мрачном мире шахт и туннелей живут люди. Управляемые богом Зайгоном и его роботами-надсмотрщиками, они всё своё время добывают кристаллы, получая лишь скудную еду за свой рабский труд, и даже не ведают о какой-либо иной жизни.
Однажды юноша, по имени Орин, находит меч, через который ему является образ таинственного старца и рассказывает о существовании другого мира наверху, в него можно вернуться и обрести свободу, а для этого нужно найти клинок. Потом старец и клинок меча исчезают, и остаётся лишь эфес.
Орин берёт эфес и вместе со своей подругой, рискуя жизнью, отправляется на поиски клинка в трудное и опасное путешествие...
Доп. информация: Это DVDRip моего DVD отсюда: http://rutracker.org/forum/viewtopic.php?t=4812058
Основной целью было создание стереофонической звуковой дорожки с полным русским многоголосым закадровым переводом, т.к. по всей сети бытует лишь неполная монофоническая версия этого перевода: отсутствует приличный фрагмент в начале и ещё пара небольших в двух местах.
У меня есть полная VHS-запись этого мультфильма с тем же переводом, тоже монофоническая, т.к. это старая ТВ-запись, а телевидение в те времена вещало лишь с монофоническим звуком, точнее, запись почти полная: отсутствует два слова, т.к. в этих местах была реклама, и, пытаясь сделать бесшовную запись, я затёр эти слова, к счастью, они малозначительны.
Передо мной стояла задача: взять этот перевод, разделить на фразы и наложить их на оригинальную английскую стереофоническую звуковую дорожку, при этом максимально сохраняя её динамические характеристики, - задача выполнена, вы можете оценить результат.
Отдельным файлом в формате SubRip сделал собственные русские субтитры на основе оригинальных английских и русского многоголосого закадрового перевода, пытался переводить литературно, а не в точном соответствии с оригиналом так, чтобы перевод читался "по-русски", а его длина соответствовала бы оригиналу без искажения исходного смысла.
В сэмпле (22,3 МБ) небольшой фрагмент как раз из той части, где в других релизах отсутствовал перевод.
Использованное ПО: VirtualDubMod, XviD MPEG-4 Video Codec, Crystal Player.
Семпл: http://dfiles.ru/files/mzfzicl1m
Качество: DVDRip
Формат: AVI
Видео: XviD, 720 x 306, 23.976 fps, 1638 kbps
Аудио: русский, многоголосый закадровый, AC-3, 48000 Hz, 2.0 ch, 192 kbps
Аудио 2: английский, оригинальный, AC-3, 48000 Hz, 2.0 ch, 192 kbps
Субтитры: русские

Подробные технические данные

Format: AVIFormat/Info: Audio Video InterleaveFile size: 1.42 GiBDuration: 1h 40mnOverall bit rate: 2 036 KbpsWriting application: VirtualDubMod 1.5.10.1 (build 2439/release)Writing library: VirtualDubMod build 2439/release
VideoID: 0Format: MPEG-4 VisualFormat profile: Advanced Simple@L5Format settings, BVOP: 2Format settings, QPel: NoFormat settings, GMC: No warppointsFormat settings, Matrix: Default (H.263)Muxing mode: Packed bitstreamCodec ID: XVIDCodec ID/Hint: XviDDuration: 1h 40mnBit rate: 1 638 KbpsWidth: 720 pixelsHeight: 306 pixelsDisplay aspect ratio: 2.35:1Frame rate: 23.976 fpsColor space: YUVChroma subsampling: 4:2:0Bit depth: 8 bitsScan type: ProgressiveCompression mode: LossyBits/(Pixel*Frame): 0.310Stream size: 1.15 GiB (80%)Writing library: XviD 1.0.2 (UTC 2004-08-29)
Audio #1ID: 1Format: AC-3Format/Info: Audio Coding 3Mode extension: CM (complete main)Codec ID: 2000Duration: 1h 40mnBit rate mode: ConstantBit rate: 192 KbpsChannel(s): 2 channelsChannel positions: Front: L RSampling rate: 48.0 KHzBit depth: 16 bitsCompression mode: LossyStream size: 137 MiB (9%)Alignment: Split accross interleavesInterleave, duration: 42 ms (1.00 video frame)Interleave, preload duration: 500 ms
Audio #2ID: 2Format: AC-3Format/Info: Audio Coding 3Format profile: Dolby DigitalMode extension: CM (complete main)Codec ID: 2000Duration: 1h 40mnBit rate mode: ConstantBit rate: 192 KbpsChannel(s): 2 channelsChannel positions: Front: L RSampling rate: 48.0 KHzBit depth: 16 bitsCompression mode: LossyStream size: 137 MiB (9%)Alignment: Split accross interleavesInterleave, duration: 42 ms (1.00 video frame)Interleave, preload duration: 500 ms
0 человек читают эту тему: 0 пользователей, 0 скрытых пользователей, 0 гостей

Показать сообщения:    

Текущее время: 23-Авг 18:43

Часовой пояс: UTC - 1


Вы не можете начинать темы
Вы не можете отвечать на сообщения
Вы не можете редактировать свои сообщения
Вы не можете удалять свои сообщения
Вы не можете голосовать в опросах
Вы не можете прикреплять файлы к сообщениям
Вы не можете скачивать файлы

!ВНИМАНИЕ!
Сайт не предоставляет электронные версии произведений, а занимается лишь коллекционированием и каталогизацией ссылок, присылаемых и публикуемых на форуме нашими читателями. Если вы являетесь правообладателем какого-либо представленного материала и не желаете, чтобы ссылка на него находилась в нашем каталоге, свяжитесь с нами, и мы незамедлительно удалим ее. Файлы для обмена на трекере предоставлены пользователями сайта, и администрация не несет ответственности за их содержание. Просьба не заливать файлы, защищенные авторскими правами, а также файлы нелегального содержания!