Ивановский Торрент трекер
Яндекс.Погода
 

[Цитировать]
HUNTER

Звероферма / Скотный двор / Animal Farm- Страна: Великобритания
Жанр: мультфильм, драма, комедия
Год выпуска: 1954
Продолжительность: 01:13:01
Перевод: Профессиональный (многоголосый закадровый)
Cубтитры: украинские, английские
Оригинальная аудиодорожка: английский-Режиссер: Джой Батчелор / Joy Batchelor, Джон Халас / John Halas
В ролях: Гордон Хит (Narration Spoken by, озвучка), Морис Денэм (All Animals, озвучка).-Описание: Когда-то мистер Джонс владел процветающей и доходной фермой, но сейчас его дела шли из рук вон плохо. Из-за невозможности решить свои проблемы мистер Джонс начал злоупотреблять выпивкой.
Среди бедных своих собутыльников он нашел хороших слушателей, которым мог рассказать о своих горестях… Эта необычная история начинается вечером, когда мистер Джонс пришел после очередной попойки позже, чем обычно…-Качество видео: BDRip 720p (исх. BDRemux hdclub)
Формат видео: MKV
Видео: x.264, 988x720, 24.000 fps, 8290 kbps
Аудио 1: AC3, 48000 Hz, 192 kbps, 2.0 channels - MVO
Аудио 2: AC3, 48000 Hz, 192 kbps, 2.0 channels - ENG
Формат субтитров: softsub (SRT) - украинские, английские-

Скриншоты


Резервные скриншоты


MediaInfo / log

Format : Matroska
Format version : Version 2
File size : 4.37 GiB
Duration : 1h 13mn
Overall bit rate : 8 572 Kbps
Movie name : Звероферма / Скотный двор / Animal Farm (1954) BDRip 720p [RG Torrents.ru]
Encoded date : UTC 2014-11-08 12:20:55
Writing application : mkvmerge v7.3.0 ('Nouages') 32bit built on Oct 22 2014 18:44:01
Writing library : libebml v1.3.0 + libmatroska v1.4.1
Attachment : Yes
Video
ID : 1
Format : AVC
Format/Info : Advanced Video Codec
Format profile : High@L4.1
Format settings, CABAC : Yes
Format settings, ReFrames : 10 frames
Codec ID : V_MPEG4/ISO/AVC
Duration : 1h 13mn
Bit rate : 8 290 Kbps
Width : 988 pixels
Height : 720 pixels
Display aspect ratio : 1.372
Frame rate mode : Constant
Frame rate : 24.000 fps
Color space : YUV
Chroma subsampling : 4:2:0
Bit depth : 8 bits
Scan type : Progressive
Bits/(Pixel*Frame) : 0.486
Stream size : 4.09 GiB (94%)
Title : RG Torrents.ru
Writing library : x264 core 142 r2479 dd79a61
Encoding settings : cabac=1 / ref=10 / deblock=1:-3:-3 / analyse=0x3:0x133 / me=umh / subme=10 / psy=1 / psy_rd=1.00:0.10 / mixed_ref=1 / me_range=32 / chroma_me=1 / trellis=2 / 8x8dct=1 / cqm=0 / deadzone=21,11 / fast_pskip=0 / chroma_qp_offset=-3 / threads=6 / lookahead_threads=1 / sliced_threads=0 / nr=0 / decimate=1 / interlaced=0 / bluray_compat=0 / constrained_intra=0 / bframes=8 / b_pyramid=2 / b_adapt=2 / b_bias=0 / direct=3 / weightb=1 / open_gop=0 / weightp=2 / keyint=240 / keyint_min=24 / scenecut=40 / intra_refresh=0 / rc_lookahead=60 / rc=2pass / mbtree=0 / bitrate=8290 / ratetol=1.0 / qcomp=0.60 / qpmin=0 / qpmax=69 / qpstep=4 / cplxblur=20.0 / qblur=0.5 / vbv_maxrate=30000 / vbv_bufsize=40000 / nal_hrd=none / filler=0 / ip_ratio=1.30 / pb_ratio=1.30 / aq=1:1.00
Language : English
Default : Yes
Forced : No
Audio #1
ID : 2
Format : AC-3
Format/Info : Audio Coding 3
Mode extension : CM (complete main)
Format settings, Endianness : Big
Codec ID : A_AC3
Duration : 1h 13mn
Bit rate mode : Constant
Bit rate : 192 Kbps
Channel(s) : 2 channels
Channel positions : Front: L R
Sampling rate : 48.0 KHz
Bit depth : 16 bits
Compression mode : Lossy
Stream size : 100 MiB (2%)
Title : MVO
Language : Russian
Default : Yes
Forced : No
Audio #2
ID : 3
Format : AC-3
Format/Info : Audio Coding 3
Mode extension : CM (complete main)
Format settings, Endianness : Big
Codec ID : A_AC3
Duration : 1h 13mn
Bit rate mode : Constant
Bit rate : 192 Kbps
Channel(s) : 2 channels
Channel positions : Front: L R
Sampling rate : 48.0 KHz
Bit depth : 16 bits
Compression mode : Lossy
Stream size : 100 MiB (2%)
Title : Original
Language : English
Default : No
Forced : No
Text #1
ID : 4
Format : UTF-8
Codec ID : S_TEXT/UTF8
Codec ID/Info : UTF-8 Plain Text
Language : Ukrainian
Default : No
Forced : No
Text #2
ID : 5
Format : UTF-8
Codec ID : S_TEXT/UTF8
Codec ID/Info : UTF-8 Plain Text
Title : SDH
Language : English
Default : No
Forced : No
Menu
00:00:00.000 : en:00:00:00.000
00:03:47.000 : en:00:03:47.000
00:12:06.000 : en:00:12:06.000
00:19:19.000 : en:00:19:19.000
00:23:30.000 : en:00:23:30.000
00:28:03.000 : en:00:28:03.000
00:31:42.625 : en:00:31:42.625
00:38:01.416 : en:00:38:01.416
00:42:38.000 : en:00:42:38.000
00:50:15.000 : en:00:50:15.000
00:57:10.000 : en:00:57:10.000
01:04:38.000 : en:01:04:38.000
x264 [info]: frame I:757   Avg QP:16.45  size:131873
x264 [info]: frame P:24617 Avg QP:18.16  size: 73913
x264 [info]: frame B:78451 Avg QP:19.35  size: 32683
x264 [info]: consecutive B-frames:  2.8%  2.8% 11.4% 23.4% 27.3% 24.1%  6.0%  0.8%  1.4%
-
Показать сообщения:    

Текущее время: 21-Сен 20:27

Часовой пояс: UTC - 1


Вы не можете начинать темы
Вы не можете отвечать на сообщения
Вы не можете редактировать свои сообщения
Вы не можете удалять свои сообщения
Вы не можете голосовать в опросах
Вы не можете прикреплять файлы к сообщениям
Вы не можете скачивать файлы

!ВНИМАНИЕ!
Сайт не предоставляет электронные версии произведений, а занимается лишь коллекционированием и каталогизацией ссылок, присылаемых и публикуемых на форуме нашими читателями. Если вы являетесь правообладателем какого-либо представленного материала и не желаете, чтобы ссылка на него находилась в нашем каталоге, свяжитесь с нами, и мы незамедлительно удалим ее. Файлы для обмена на трекере предоставлены пользователями сайта, и администрация не несет ответственности за их содержание. Просьба не заливать файлы, защищенные авторскими правами, а также файлы нелегального содержания!