Ивановский Торрент трекер
Яндекс.Погода
 

[Цитировать]
HUNTER

Звероферма / Скотный двор / Animal Farm
«He's got the world in an UPROAR!»
- Страна: Великобритания
Жанр: мультфильм, драма, комедия
Продолжительность: 01:13:11
Год выпуска: 1954
Перевод: Профессиональный (многоголосый закадровый)
Русские субтитры: нет-Режиссёр: Джой Батчелор / Joy Batchelor, Джон Халас / John Halas
Сценарий: Джордж Оруэлл / George Orwell, Лотар Вольф / Lothar Wolff
Продюсер: Джой Батчелор / Joy Batchelor, Джон Халас / John Halas
Композитор: Матяш Шейбер / Matyas Seiber-Роли озвучивали:
Гордон Хит (Narration Spoken by, озвучка), Морис Денэм (All Animals, озвучка).-Мировая премьера: 29 декабря 1954
Релиз на DVD: 27 августа 2012, «Новый Диск»
-Описание:
Когда-то мистер Джонс владел процветающей и доходной фермой, но сейчас его дела шли из рук вон плохо. Из-за невозможности решить свои проблемы мистер Джонс начал злоупотреблять выпивкой. Среди бедных своих собутыльников он нашел хороших слушателей, которым мог рассказать о своих горестях… Эта необычная история начинается вечером, когда мистер Джонс пришел после очередной попойки позже, чем обычно…-Рейтинг
kinopoisk.ru: 7.263 (636)
imdb.com: 7.30 (8078)
MPAA: зрителям, достигшим 12 лет-Качество: BDRip | исх. ☞ « sergey_n / / MPEG-4 AVC. 1080p. BDRemux »
Формат: AVI ///СОВМЕСТИМО С БЫТОВЫМИ ПЛЕЕРАМИ/// → //SAMPLE//
Видео: 720x528 (1.36:1), 24.000 fps, XviD build 65 ~1938 kbps avg, 0.21 bit/pixel
Аудио: 48.0 kHz, AC3 Dolby Digital, 2/0 (L,R) ch, ~192.00 kbps avg | MVO
Субтитры: Отсутствуют
Размер: 1117.81 Mb (1/4 DVD-R)
-

Подробные технические данные

ОбщееПолное имя : A:\Фильмы\ANIMAL_FARM_1954.DUAL.BDRip.XviD.1,09Gb.AC3.aviФормат : AVIФормат/Информация : Audio Video InterleaveРазмер файла : 1,09 ГбайтПродолжительность : 1 ч. 13 м.Общий поток : 2140 Кбит/секПрограмма кодирования : VirtualDubMod 1.5.10.3 | www.virtualdub-fr.org || (build 2550/release)Библиотека кодирования : VirtualDubMod build 2550/release
ВидеоИдентификатор : 0Формат : MPEG-4 VisualПрофиль формата : Advanced Simple@L5Параметр BVOP формата : 1Параметр QPel формата : : 4:3НетПараметр GMC формата : Без точки переходаПараметр матрицы формата : ВыборочнаяИдентификатор кодека : XVIDИдентификатор кодека/Подсказка : XviDПродолжительность : 1 ч. 13 м.Битрейт : 1939 Кбит/секШирина : 720 пикселейВысота : 528 пикселейСоотношение сторон : 1.36:1Частота кадров : 24,000 кадра/секЦветовое пространство : YUVСубдискретизация насыщенности : 4:2:0Битовая глубина : 8 битТип развёртки : ПрогрессивнаяМетод сжатия : С потерямиБит/(Пиксели*Кадры) : 0.212Размер потока : 1013 Мбайт (91%)Библиотека кодирования : XviD 65
АудиоИдентификатор : 1Формат : AC-3Формат/Информация : Audio Coding 3Расширение режима : CM (complete main)Параметр Endianness формата : BigИдентификатор кодека : 2000Продолжительность : 1 ч. 13 м.Вид битрейта : ПостоянныйБитрейт : 192 Кбит/секКаналы : 2 каналаРасположение каналов : Front: L RЧастота : 48,0 КГцБитовая глубина : 16 битМетод сжатия : С потерямиРазмер потока : 100 Мбайт (9%)Выравнивание : Соединение по промежуткамПродолжительность промежутка : 42 мс. (1,00 видеокадр)Время предзагрузки промежутка : 512 мс.

Скриншоты



Показать сообщения:    

Текущее время: 11-Дек 04:15

Часовой пояс: UTC ± 0


Вы не можете начинать темы
Вы не можете отвечать на сообщения
Вы не можете редактировать свои сообщения
Вы не можете удалять свои сообщения
Вы не можете голосовать в опросах
Вы не можете прикреплять файлы к сообщениям
Вы не можете скачивать файлы

!ВНИМАНИЕ!
Сайт не предоставляет электронные версии произведений, а занимается лишь коллекционированием и каталогизацией ссылок, присылаемых и публикуемых на форуме нашими читателями. Если вы являетесь правообладателем какого-либо представленного материала и не желаете, чтобы ссылка на него находилась в нашем каталоге, свяжитесь с нами, и мы незамедлительно удалим ее. Файлы для обмена на трекере предоставлены пользователями сайта, и администрация не несет ответственности за их содержание. Просьба не заливать файлы, защищенные авторскими правами, а также файлы нелегального содержания!