Важное объявление!
У Нас Все раздачи мультитрекерные, при нуле пиров в релизах, можете смело вставать на закачку!
Статистика раздачи
Размер:     |    Зарегистрирован:     |    Скачан:     |   
Нет
 
     
 
 
Автор Сообщение

HUNTER

Стаж:
5 лет
Сообщений:
67968

Репутация: 101

[+] [-]
Вне форума [Профиль] [ЛС]

Зверополис / Zootopia«Welcome to the urban jungle»-
Страна: США
Жанр: мультфильм, боевик, комедия, приключения, семейный
Год выпуска: 2016
Продолжительность: 01:48:44
Перевод: Профессиональный (дублированный) (BD EUR)
Оригинальная аудиодорожка: английский
Cубтитры: русские (полные), английские (полные, SDH)
Навигация по главам: есть
Режиссеры: Байрон Ховард / Byron Howard, Рич Мур / Rich Moore, Джаред Буш / Jared Bush
В ролях (озвучивали): Джиннифер Гудвин, Джейсон Бейтмен, Идрис Эльба, Дженни Слейт, Нейт Торренс, Бонни Хант, Дон Лейк, Томми Чонг, Дж.К. Симмонс, Октавия Спенсер, Алан Тьюдик, Шакира, Рэймонд С. Перси, Делла Саба, Морис ЛаМарш, Фуския, Джон Ди Маджио, Кэти Лоус, Джесси Корти, Том ’Тайни’ Листер мл.
Описание: Добро пожаловать в Зверополис — современный город, населенный самыми разными животными, от огромных слонов до крошечных мышек. Зверополис разделен на районы, полностью повторяющие естественную среду обитания разных жителей — здесь есть и элитный район Площадь Сахары и неприветливый Тундратаун. В этом городе появляется новый офицер полиции, жизнерадостная зайчиха Джуди Хоппс, которая с первых дней работы понимает, как сложно быть маленькой и пушистой среди больших и сильных полицейских. Джуди хватается за первую же возможность проявить себя, несмотря на то, что ее партнером будет болтливый хитрый лис Ник Уайлд. Вдвоем им предстоит раскрыть сложное дело, от которого будет зависеть судьба всех обитателей Зверополиса.
[img]https://rating.kinopoisk.ru/775276.gif[/img]-Качество видео: BDRip-AVC (исходник - Blu-ray|ZOOTOPIA_HDCLUB)
Формат видео: MKV
Видео: x264, 1142x482 (2,40:1), 23,976 fps, ~2755 kbps, 0.207 bit/pixel
Аудио 1: 48 kHz, AC3 Dolby Digital, 3/2 (L,C,R,l,r) + LFE ch, ~448 kbps [русский]
Аудио 2: 48 kHz, AC3 Dolby Digital, 3/2 (L,C,R,l,r) + LFE ch, ~448 kbps [английский]
Формат субтитров: softsub (SRT)

MediaInfo | x264 log

Format : Matroska
Format version : Version 4 / Version 2
File size : 2.83 GiB
Duration : 1h 48mn
Overall bit rate : 3 726 Kbps
Movie name : Зверополис / Zootopia (2016) :: AFM ::
Encoded date : UTC 2016-08-13 09:44:16
Writing application : mkvmerge v8.3.0 ('Over the Horizon') 32bit
Writing library : libebml v1.3.1 + libmatroska v1.4.2
Video
ID : 1
Format : AVC
Format/Info : Advanced Video Codec
Format profile : High@L4.1
Format settings, CABAC : Yes
Format settings, ReFrames : 11 frames
Codec ID : V_MPEG4/ISO/AVC
Duration : 1h 48mn
Bit rate : 2 755 Kbps
Width : 1 152 pixels
Height : 482 pixels
Display aspect ratio : 2.40:1
Frame rate mode : Constant
Frame rate : 23.976 fps
Color space : YUV
Chroma subsampling : 4:2:0
Bit depth : 8 bits
Scan type : Progressive
Bits/(Pixel*Frame) : 0.207
Stream size : 2.09 GiB (74%)
Title : BDRip by AFM [RuTracker.org]
Writing library : x264 core 148 r2705+54 9f484c1 t_mod_Custom [8-bit@all X86_64]
Encoding settings : cabac=1 / ref=11 / deblock=1:-2:-2 / analyse=0x3:0x113 / me=umh / subme=10 / psy=1 / fade_compensate=0.00 / psy_rd=1.00:0.00 / mixed_ref=1 / me_range=32 / chroma_me=1 / trellis=2 / 8x8dct=1 / cqm=0 / deadzone=21,11 / fast_pskip=0 / chroma_qp_offset=-2 / threads=6 / lookahead_threads=1 / sliced_threads=0 / nr=0 / decimate=1 / interlaced=0 / bluray_compat=0 / constrained_intra=0 / fgo=0 / bframes=12 / b_pyramid=2 / b_adapt=2 / b_bias=0 / direct=1 / weightb=1 / open_gop=0 / weightp=2 / keyint=250 / keyint_min=23 / scenecut=40 / intra_refresh=0 / rc_lookahead=40 / rc=crf / mbtree=0 / crf=16.3300 / qcomp=0.65 / qpmin=0:0:0 / qpmax=69:69:69 / qpstep=4 / vbv_maxrate=50000 / vbv_bufsize=62500 / crf_max=0.0 / nal_hrd=none / filler=0 / ip_ratio=1.33 / pb_ratio=1.30 / aq=3:0.80 / aq-sensitivity=10.00 / aq-factor=1.00:1.00:1.00 / aq2=0 / aq3=0
Language : English
Default : Yes
Forced : No
Audio #1
ID : 2
Format : AC-3
Format/Info : Audio Coding 3
Mode extension : CM (complete main)
Format settings, Endianness : Big
Codec ID : A_AC3
Duration : 1h 48mn
Bit rate mode : Constant
Bit rate : 448 Kbps
Channel(s) : 6 channels
Channel positions : Front: L C R, Side: L R, LFE
Sampling rate : 48.0 KHz
Compression mode : Lossy
Stream size : 348 MiB (12%)
Title : Dub, AC3 5.1 ~448 kbps
Language : Russian
Default : Yes
Forced : No
Audio #2
ID : 3
Format : AC-3
Format/Info : Audio Coding 3
Mode extension : CM (complete main)
Format settings, Endianness : Big
Codec ID : A_AC3
Duration : 1h 48mn
Bit rate mode : Constant
Bit rate : 448 Kbps
Channel(s) : 6 channels
Channel positions : Front: L C R, Side: L R, LFE
Sampling rate : 48.0 KHz
Compression mode : Lossy
Stream size : 348 MiB (12%)
Title : Original, AC3 5.1 ~448 kbps
Language : English
Default : No
Forced : No
Text #1
ID : 4
Format : UTF-8
Codec ID : S_TEXT/UTF8
Codec ID/Info : UTF-8 Plain Text
Language : Russian
Default : No
Forced : No
Text #2
ID : 5
Format : UTF-8
Codec ID : S_TEXT/UTF8
Codec ID/Info : UTF-8 Plain Text
Language : English
Default : No
Forced : No
Text #3
ID : 6
Format : UTF-8
Codec ID : S_TEXT/UTF8
Codec ID/Info : UTF-8 Plain Text
Language : English
Default : No
Forced : No
Menu
00:00:00.000 : en:Prologue
00:00:59.559 : en:Gideon Grey
00:05:50.099 : en:The Police Academy
00:10:05.563 : en:Welcome to Zootopia
00:14:31.537 : en:Meter Maid Duty
00:18:24.019 : en:Pawpsicles
00:26:03.353 : en:The Weasel Chase
00:30:57.438 : en:It's Called A Hustle
00:37:07.099 : en:The Naturalist Club
00:40:43.441 : en:Department Of 10
00:44:31.752 : en:Mr. Big
00:51:40.430 : en:Manchas Goes Savage
00:55:40.378 : en:The Gondola
01:00:48.269 : en:Help from Bellwether
01:03:37.855 : en:Cliffside Asylum
01:09:19.822 : en:We Cracked the Case
01:13:39.164 : en:Hopps Gives Up
01:17:07.372 : en:Hopps' Apology
01:21:52.365 : en:Doug's Laboratory
01:28:19.168 : en:The Natural History Museum
01:32:43.432 : en:Epilogue
01:36:12.141 : en:End Credits
x264
x264 [info]: frame I:1419 Avg QP:14.41 size: 89524
x264 [info]: frame P:33608 Avg QP:15.30 size: 32358
x264 [info]: frame B:121402 Avg QP:18.22 size: 8988
x264 [info]: consecutive B-frames: 2.0% 1.6% 7.4% 25.6% 18.9% 31.6% 6.2% 3.4% 1.3% 0.7% 0.5% 0.3% 0.5%
x264 [info]: mb I I16..4: 3.3% 74.3% 22.4%
x264 [info]: mb P I16..4: 0.6% 10.8% 2.4% P16..4: 34.0% 30.3% 19.2% 0.0% 0.0% skip: 2.8%
x264 [info]: mb B I16..4: 0.1% 0.9% 0.3% B16..8: 33.9% 14.2% 4.4% direct: 4.8% skip:41.5% L0:43.9% L1:42.4% BI:13.7%
x264 [info]: 8x8 transform intra:76.2% inter:55.1%
x264 [info]: coded y,uvDC,uvAC intra: 90.2% 89.2% 76.8% inter: 22.4% 19.0% 6.4%
x264 [info]: i16 v,h,dc,p: 22% 16% 8% 54%
x264 [info]: i8 v,h,dc,ddl,ddr,vr,hd,vl,hu: 15% 11% 8% 8% 11% 11% 12% 10% 13%
x264 [info]: i4 v,h,dc,ddl,ddr,vr,hd,vl,hu: 24% 8% 3% 8% 12% 11% 12% 10% 11%
x264 [info]: i8c dc,h,v,p: 37% 29% 19% 14%
x264 [info]: Weighted P-Frames: Y:2.8% UV:2.1%
x264 [info]: ref P L0: 45.3% 8.4% 16.6% 6.6% 6.0% 4.6% 4.4% 2.2% 2.1% 1.7% 1.9% 0.1% 0.0%
x264 [info]: ref B L0: 67.4% 12.7% 6.5% 3.5% 2.6% 2.4% 2.3% 1.4% 0.8% 0.4%
x264 [info]: ref B L1: 93.5% 6.5%
x264 [info]: kb/s:2827.22

Скриншоты

с названием

_________________
Показать сообщения:    

Текущее время: Сегодня 16:47

Часовой пояс: GMT



Вы не можете начинать темы
Вы не можете отвечать на сообщения
Вы не можете редактировать свои сообщения
Вы не можете удалять свои сообщения
Вы не можете голосовать в опросах
Вы не можете прикреплять файлы к сообщениям
Вы не можете скачивать файлы