Зверополис / Zootopia (Байрон Ховард / Byron Howard, Рич Мур / Rich Moore, Джаред Буш / Jared Bush) [2016, США, мультфильм, боевик, комедия, приключения, семейный, HDRip] [Локализованный видеоряд] Dub :: Ивановский Торрент трекер
Важное объявление!
У Нас Все раздачи мультитрекерные, при нуле пиров в релизах, можете смело вставать на закачку!
 
Автор Сообщение

HUNTER

Стаж:
4 года 11 месяцев
Сообщений:
66045

Репутация: 101

[+] [-]
Вне форума [Профиль] [ЛС]

Зверополис / Zootopia
Страна: США
Жанр: мультфильм, боевик, комедия, приключения, семейный
Продолжительность: 01:48:44
Год выпуска: 2016
Перевод: Профессиональный (дублированный) BD CEE
Русские субтитры: нет
Режиссёр: Байрон Ховард / Byron Howard, Рич Мур / Rich Moore, Джаред Буш / Jared Bush
Роли озвучивали: Джиннифер Гудвин (Judy Hopps, озвучка), Джейсон Бейтман (Nick Wilde, озвучка), Идрис Эльба (Chief Bogo, озвучка), Дженни Слейт (Bellwether, озвучка), Нейт Торренс (Clawhauser, озвучка), Бонни Хант (Bonnie Hopps, озвучка), Дон Лейк (Stu Hopps, озвучка), Томми Чонг (Yax, озвучка), Дж.К. Симмонс (Mayor Lionheart, озвучка), Октавия Спенсер (Mrs. Otterton, озвучка), Алан Тьюдик (Duke Weaselton, озвучка), Шакира (Gazelle, озвучка)
Описание: Добро пожаловать в Зверополис - современный город, населенный самыми разными животными, от огромных слонов до крошечных мышек. Зверополис разделен на районы, полностью повторяющие естественную среду обитания разных жителей - здесь есть и элитный район Площадь Сахары и неприветливый Тундратаун. В этом городе появляется новый офицер полиции, жизнерадостная зайчиха Джуди Хоппс, которая с первых дней работы понимает, как сложно быть маленькой и пушистой среди больших и сильных полицейских. Джуди хватается за первую же возможность проявить себя, несмотря на то, что ее партнером будет болтливый хитрый лис Ник Уайлд. Вдвоем им предстоит раскрыть сложное дело, от которого будет зависеть судьба всех обитателей Зверополиса.
Релиз от Megapeer
Локализованный русский видеоряд

Семпл
Качество: HDRip (Исх. Zootopia.2016.720p.BluRay.DTS.Rus.Ukr.2xEng.HDCLUB)
Формат: AVI
Видео: 720x304 (2.37:1), 23.976 fps, XviD build 73 ~1469 kbps avg, 0.28 bit/pixel
Аудио: 48 kHz, AC3 Dolby Digital, 3/2 (L,C,R,l,r) + LFE ch, ~448 kbps - BD CEE
Субтитры: отсутствуют

Подробные технические данные

ОбщееПолное имя : D:\Zootopia.2016.HDRip.1.46Gb.Dub.Loc.MegaPeer.aviФормат : AVIФормат/Информация : Audio Video InterleaveРазмер файла : 1,46 ГбайтПродолжительность : 1 ч. 48 м.Общий поток : 1925 Кбит/сек
ВидеоИдентификатор : 0Формат : MPEG-4 VisualПрофиль формата : Advanced Simple@L5Параметр BVOP формата : 1Параметр QPel формата : НетПараметр GMC формата : Без точки переходаПараметр матрицы формата : ВыборочнаяИдентификатор кодека : XVIDИдентификатор кодека/Подсказка : XviDПродолжительность : 1 ч. 48 м.Битрейт : 1470 Кбит/секШирина : 720 пикселейВысота : 304 пикселяСоотношение сторон : 2,35:1Частота кадров : 23,976 (24000/1001) кадра/секЦветовое пространство : YUVСубдискретизация насыщенности : 4:2:0Битовая глубина : 8 битТип развёртки : ПрогрессивнаяМетод сжатия : С потерямиБит/(Пиксели*Кадры) : 0.280Размер потока : 1,12 Гбайт (76%)Библиотека кодирования : XviD 73
АудиоИдентификатор : 1Формат : AC-3Формат/Информация : Audio Coding 3Расширение режима : CM (complete main)Параметр Endianness формата : BigИдентификатор кодека : 2000Продолжительность : 1 ч. 48 м.Вид битрейта : ПостоянныйБитрейт : 448 Кбит/секКаналы : 6 каналовРасположение каналов : Front: L C R, Side: L R, LFEЧастота : 48,0 КГцЧастота кадров : 31,250 кадров/сек (1536 spf)Метод сжатия : С потерямиРазмер потока : 348 Мбайт (23%)Выравнивание : Соединение по промежуткамПродолжительность промежутка : 64 мс. (1,53 видеокадра)Время предзагрузки промежутка : 192 мс.Заголовок : BD CEE

Скриншоты


_________________
Показать сообщения:    

Текущее время: Сегодня 22:37

Часовой пояс: GMT



Вы не можете начинать темы
Вы не можете отвечать на сообщения
Вы не можете редактировать свои сообщения
Вы не можете удалять свои сообщения
Вы не можете голосовать в опросах
Вы не можете прикреплять файлы к сообщениям
Вы не можете скачивать файлы